Browse Collections Artists Sources   Search Dates

Add Show    List Management    Help


Grateful Dead 08/04/76
Roosevelt Stadium, Jersey City, NJ
Comments Add Comment    Source Collectors    Add to Collection    Add to Want List    History
Source # 127248 Other Sources
Entered by Matt Vernon
Checksums ffp , flac-md5
Disc Counts 0 / 0
Media Size Compressed: 1.32 GB (1415577600 bytes)
Uncompressed: 2.03 GB (2177668376 bytes)
Date Circulated
Date Added
03/03/2014
03/03/2014
Source Summary flac16; (original shnid = 12078) Source 1: MAC > D > CD *Recorded by Scott Jones, Shure micsSony TC-158 Source 2: unknown aud supplies end of Sugar Magnolia and Encore; via Jackey Shack; Seeded to etree by Matt Vernon - pitch correction and patches by Kevin Tobin 
  Archive
Source Information - Download Text | Download Zip
Grateful Dead
8/4/1976
Roosevelt Stadium
Jersey City, NJ

Patched and pitch corrected Audience (original shnid=12078)

Set 1:
gd1976-08-04d1t01 - Sugaree
gd1976-08-04d1t02 - New Minglewood Blues
gd1976-08-04d1t03 - Row Jimmy
gd1976-08-04d1t04 - Big River
gd1976-08-04d1t05 - Loser
gd1976-08-04d1t06 - Looks Like Rain
gd1976-08-04d1t07 - They Love Each Other
gd1976-08-04d1t08 - The Music Never Stopped
gd1976-08-04d2t01 - Scarlet Begonias

Set 2:
gd1976-08-04d2t02 - Help On The Way-->
gd1976-08-04d2t03 - Slipknot-->
gd1976-08-04d2t04 - Franklin's Tower-->
gd1976-08-04d2t05 - Dancin' In The Streets-->
gd1976-08-04d2t06 - The Wheel-->
gd1976-08-04d2t07 - Samson & Delilah
gd1976-08-04d3t01 - It Must Have Been The Roses
gd1976-08-04d3t02 - Not Fade Away-->
gd1976-08-04d3t03 - Drums-->
gd1976-08-04d3t04 - The Other One-->
gd1976-08-04d3t05 - Ship Of Fools
gd1976-08-04d3t06 - Sugar Magnolia

Encore
gd1976-08-04d3t07 - Johnny B. Goode

Audio Information:
Original AUD1 (shnid=12078)
Source 1: MAC > D > CD *Recorded by Scott Jones, Shure micsSony TC-158
Source 2: unknown aud supplies end of Sugar Magnolia and Encore
Transfer: CDR > EAC (secure) > Cool Edit (minor fixup) > mkwact(seekable)
shntool supplies times and confirms track on sector boundaries

Thanks to Jackey Shack for the disks!
shn encoding by [email protected]

Patched with the following:
SBD1 (shnid=35171)
SBD>Cm>Reel>Lucid AD2496>CD>EAC>SHN
(Tape Flips Patched w/(FOB) Shure Mics>Cm>Dat>CD)
(parts of set 1 patched from video soundtrack)
from Charlie Miller via Patrick Clifford with many thanks
(my source for the show was bob wagner - cm)
Note:
Patrick Clifford sent me this in order to work on set 1 of the black and white video that was done by BHP in 2005.

SBD2 (no shnid)
Audio from video source - used for patching and timing source only
---------------------------------------------------------
- Mixed by [email protected]
- FLAC conversion 03-MAR-2014 - Trader Little Helper
- Tagged 03-MAR-2014 - Tag&Rename
---------------------------------------------------------

Brokedown House Production

    length     expanded size    cdr  WAVE problems  fmt   ratio  filename
    14:12.39      150384572 B   ---   --   -----    wav  1.0000  gd1976-08-04d1t01.wav
     5:07.44       54258332 B   ---   --   -----    wav  1.0000  gd1976-08-04d1t02.wav
    12:21.33      130790060 B   ---   --   -----    wav  1.0000  gd1976-08-04d1t03.wav
     7:35.26       80323196 B   ---   --   -----    wav  1.0000  gd1976-08-04d1t04.wav
     9:56.64      105284972 B   ---   --   -----    wav  1.0000  gd1976-08-04d1t05.wav
     7:52.11       83286716 B   ---   --   -----    wav  1.0000  gd1976-08-04d1t06.wav
     8:54.69       94359932 B   ---   --   -----    wav  1.0000  gd1976-08-04d1t07.wav
     6:32.53       69273500 B   ---   --   -----    wav  1.0000  gd1976-08-04d1t08.wav
    15:12.67      161034428 B   ---   --   -----    wav  1.0000  gd1976-08-04d2t01.wav
     6:30.54       68923052 B   ---   --   -----    wav  1.0000  gd1976-08-04d2t02.wav
    10:42.43      113349980 B   ---   --   -----    wav  1.0000  gd1976-08-04d2t03.wav
    12:05.58      128026460 B   ---   --   -----    wav  1.0000  gd1976-08-04d2t04.wav
    15:02.59      159251612 B   ---   --   -----    wav  1.0000  gd1976-08-04d2t05.wav
     5:37.72       59616188 B   ---   --   -----    wav  1.0000  gd1976-08-04d2t06.wav
     7:07.29       75391052 B   ---   --   -----    wav  1.0000  gd1976-08-04d2t07.wav
     8:34.18       90711980 B   ---   --   -----    wav  1.0000  gd1976-08-04d3t01.wav
     6:41.32       70811708 B   ---   --   -----    wav  1.0000  gd1976-08-04d3t02.wav
     3:52.61       41068316 B   ---   --   -----    wav  1.0000  gd1976-08-04d3t03.wav
    16:30.39      174727772 B   ---   --   -----    wav  1.0000  gd1976-08-04d3t04.wav
     8:58.07       94919708 B   ---   --   -----    wav  1.0000  gd1976-08-04d3t05.wav
    11:44.56      124317356 B   ---   --   -----    wav  1.0000  gd1976-08-04d3t06.wav
     4:29.45       47557484 B   ---   --   -----    wav  1.0000  gd1976-08-04d3t07.wav
   205:45.04     2177668376 B                            1.0000  (22 files)



Show Checksums
ffp
gd1976-08-04d1t01.flac:87f446946285624b4ad1dfa1b17c7713
gd1976-08-04d1t02.flac:8c04c5017a9bd91ce3842f1e49c39703
gd1976-08-04d1t03.flac:895000333daa2e94af2da16251a4be59
gd1976-08-04d1t04.flac:a6c79fdd9ed32fae9ab86408ea875287
gd1976-08-04d1t05.flac:d275d253c7c56b580fa2e77632077f0a
gd1976-08-04d1t06.flac:2b741077243a414eeb525297b77e760d
gd1976-08-04d1t07.flac:cb9d62b8a7ca338e379f65ba0bbd141a
gd1976-08-04d1t08.flac:3b97fa7a5f53002511c03e6c364acbac
gd1976-08-04d2t01.flac:7867beb01d365af1059bc78143e1a9ee
gd1976-08-04d2t02.flac:28f4af90b37c5944b552a0bb2e1dfd4d
gd1976-08-04d2t03.flac:7cf89402c9bfc7ee8d3ead0fd3f49a02
gd1976-08-04d2t04.flac:5dee42076bcecdc073dab4d77d97f3e4
gd1976-08-04d2t05.flac:6ef7e8612fd036faf2ab50059b36a50b
gd1976-08-04d2t06.flac:fb82490f5e04570cb4e639c2b0b78e74
gd1976-08-04d2t07.flac:c96c7cb14faf10f4043dc677f428a864
gd1976-08-04d3t01.flac:58f5a517702f5ddd88623f1de99cb478
gd1976-08-04d3t02.flac:b66f175c56f8f0fb81c4ccee666d5af5
gd1976-08-04d3t03.flac:ae415d5a2e23123e0e2a3ec604aab3f8
gd1976-08-04d3t04.flac:5fc9fece632816f88498cf28dc2097a3
gd1976-08-04d3t05.flac:86d3ff49462aae8c316eced95962dd08
gd1976-08-04d3t06.flac:ec3e5199c78cf24cf00b61f5753cba3b
gd1976-08-04d3t07.flac:d31e768fc0f1f97ce9c364fa1d830d50
flac-md5
622a9b32a8e7a123bdade74489c076f5 *gd1976-08-04d1t01.flac
df16809e55240e26f954b20cff39d342 *gd1976-08-04d1t02.flac
7e8437feda07a3a9675b5de919070c82 *gd1976-08-04d1t03.flac
fd38f8a1e0e8a1263fb6b930098f21df *gd1976-08-04d1t04.flac
9e3f545342d67f5e7b940cf64f5a6ba1 *gd1976-08-04d1t05.flac
503c62cb6d2628461c00b2eebfa2338c *gd1976-08-04d1t06.flac
1631fd82a26ae7b76450f535b4dbd966 *gd1976-08-04d1t07.flac
c57c9a8ab5204cd4e9cec693de895031 *gd1976-08-04d1t08.flac
412cabe09970f14f2d0cdd2ecdf2c7cc *gd1976-08-04d2t01.flac
c20e9ffbaa7107b1b20f5f406a4ee5f7 *gd1976-08-04d2t02.flac
906705a23d2602fd81d0ad4dfb44e6ee *gd1976-08-04d2t03.flac
d543156136ff5bcef19226cd6f12a816 *gd1976-08-04d2t04.flac
22c4c1e6b4acd334fd65ebc2fc4bc56d *gd1976-08-04d2t05.flac
9054e3263c8ef3827783c46418720e1f *gd1976-08-04d2t06.flac
c9b755134bba6587b8a5d1b2788128f4 *gd1976-08-04d2t07.flac
513cbd8f652f70c01f2e3e7565ac4eb2 *gd1976-08-04d3t01.flac
ddff50597e530a5a663e394b0730261c *gd1976-08-04d3t02.flac
0b45da5465d637b96bca3c095b462cdc *gd1976-08-04d3t03.flac
e20fe61ab619266e0f73db7be1405bb9 *gd1976-08-04d3t04.flac
a41d204ee59896ec255878ad72219355 *gd1976-08-04d3t05.flac
df8abb45e57bffd46b550860e092d3f8 *gd1976-08-04d3t06.flac
b2ced724ceef277883168c78901bedf8 *gd1976-08-04d3t07.flac

Comments
Add Comment
Other Sources (comments)
MSR-> C-> DAT-> CDR-> EAC->... (1) Source 1: MAC > D > CD... (0) SBD> MR> C> D> CD> EAC>... (0) flac16;... (1) flac24; source: sbd... (0) flac16; source: sbd... (0) flac16; 2 source... (0) flac16; Matrix 3... (0) flac16; (original... (0) DTS-Audio-CD 5.1... (0)
Date User Comment