Browse Collections Artists Sources   Search Dates

Add Show    List Management    Help


Grateful Dead 09/02/80
Community War Memorial Auditorium, Rochester, NY
Comments Add Comment    Source Collectors    Add to Collection    Add to Want List    History
Source # 127274 Other Sources
Entered by Matt Vernon
Checksums flac-md5 , ffp
Disc Counts 0 / 0
Media Size Compressed: 652.25 MB (683933696 bytes)
Uncompressed: 1.13 GB (1216701888 bytes)
Date Circulated
Date Added
03/06/2014
03/06/2014
Source Summary flac16 Set 2 AUD: 2x Beyers M160's > Nakamichi 550, FOB center. Transfer: MAC > Nakamichi 1000-II > Sound Devices USB Pre-2 > WAV 2496. Edits: WAV 2496 > Wavelab > R8Brain > CD-Wave > TLH > FLAC 1644 tagged. Concert recording & transfer by Richie Stankiewicz, edits by Andrew F. 03/2014 
  Archive
Source Information - Download Text | Download Zip
GRATEFUL DEAD
War Memorial
Rochester NY
09-02-1980
2nd Set

16bit/44.1kHz file-set

s2t01 Althea
s2t02 C.C. Rider
s2t03 Ship of Fools
s2t04 Estimated Prophet >
s2t05 Terrapin >
s2t06 Playin' in the Band >
s2t07 Drums >
s2t08 Space >
s2t09 Iko Iko >
s2t10 Morning Dew >
s2t11 Sugar Magnolia
s2t12 Encore: Alabama Getaway

AUD: 2x Beyers M160's > Nakamichi 550, FOB center.

Transfer: MAC > Nakamichi 1000-II > Sound Devices USB Pre-2 > WAV 2496.

Edits: WAV 2496 > Wavelab > R8Brain > CD-Wave > TLH > FLAC 1644 tagged.

Concert recording & transfer by Richie Stankiewicz, edits by Andrew F. 03/2014

Notes: Upgrades 2nd Set of ID-26094. ID-102775 patches: Terrapin 5:55 > 6:00,
Drums 0:18 > 9:17, Sugar Magnolia 0:00 > 0:10, Alabama Getaway complete track.
Sugar Magnolia from 1st gen copy. Sorry, the 1st Set tape is lost :(

    length     expanded size    cdr  WAVE problems  fmt   ratio  filename
    10:48.06      114321356 B   ---   --   ---xx   flac  0.5758  gd1980-09-02s2t01.flac
     8:37.70       91363484 B   ---   --   ---xx   flac  0.5687  gd1980-09-02s2t02.flac
     8:36.57       91156508 B   ---   --   ---xx   flac  0.5447  gd1980-09-02s2t03.flac
    11:47.70      124879484 B   ---   --   ---xx   flac  0.5748  gd1980-09-02s2t04.flac
    13:03.31      138194156 B   ---   --   ---xx   flac  0.5658  gd1980-09-02s2t05.flac
    10:55.64      115692572 B   ---   --   ---xx   flac  0.5661  gd1980-09-02s2t06.flac
     9:56.13      105165020 B   ---   --   ---xx   flac  0.5097  gd1980-09-02s2t07.flac
     7:52.57       83394908 B   ---   --   ---xx   flac  0.4555  gd1980-09-02s2t08.flac
     7:36.53       80563100 B   ---   --   ---xx   flac  0.5995  gd1980-09-02s2t09.flac
    10:54.04      115375052 B   ---   --   ---xx   flac  0.5616  gd1980-09-02s2t10.flac
     8:54.45       94303484 B   ---   --   ---xx   flac  0.6170  gd1980-09-02s2t11.flac
     5:53.10       62292764 B   ---   --   ---xx   flac  0.6121  gd1980-09-02s2t12.flac
   114:57.30     1216701888 B                            0.5621  (12 files)

No errors occured.



Show Checksums
flac-md5
0ddb55a84cd48a1eeb08f9cbee6ab4eb *gd1980-09-02s2t01.flac
968cea67575dedd81ed422245631faf3 *gd1980-09-02s2t02.flac
581be4e5e46120b782ce3ecf1f54c4a7 *gd1980-09-02s2t03.flac
72b2a9000a23f67421360810b42c85a0 *gd1980-09-02s2t04.flac
8f50bab8d0067b74ded5c1e15758d87f *gd1980-09-02s2t05.flac
6535fb4f6f7a5ee684b9ca1714f0d37e *gd1980-09-02s2t06.flac
6df448247ebb57ee61aaf6a008f5aa58 *gd1980-09-02s2t07.flac
e77b22c46d957b0907a0c28adbca8293 *gd1980-09-02s2t08.flac
3fd27c29100c54a05453f99d6f371b05 *gd1980-09-02s2t09.flac
6d2f1ded1f1481105d1f3929c5d2a9a3 *gd1980-09-02s2t10.flac
611a6684d3525a75f0de1c1f9d4c2e9c *gd1980-09-02s2t11.flac
5dda91e0d9c21f631251c13c0641479d *gd1980-09-02s2t12.flac
ffp
gd1980-09-02s2t01.flac:38f187bf44c082c5dc4766a8cbc5d91e
gd1980-09-02s2t02.flac:3428a4c06b5f011b9eaba5b5407c2bd7
gd1980-09-02s2t03.flac:2bcf5eabe153ab5c80af5f2206ae6121
gd1980-09-02s2t04.flac:e638322f653115d37ce57de76b2d63ed
gd1980-09-02s2t05.flac:154bc9d36d2eaa5df564171eff76fbec
gd1980-09-02s2t06.flac:87f81bbd8b04c24b9efe7b2500fc947c
gd1980-09-02s2t07.flac:63c1a82197cd7ee0b4278d871fc28ce9
gd1980-09-02s2t08.flac:103261a4c0c7709415d315c05a432094
gd1980-09-02s2t09.flac:240db7c0ec881cb702def985d0c532d2
gd1980-09-02s2t10.flac:f0863499dcc0ae57ea0757ff072bc9ae
gd1980-09-02s2t11.flac:bc5c459716d94711b4b74db0534cd0f5
gd1980-09-02s2t12.flac:7785fa97a2b168c8bb76ddcf39532a88

Comments
Add Comment
Other Sources (comments)
Audience Recording: MC? >... (1) AUD (FOB, unknown mics)>... (0) flac16; mixed... (7) flac16; Patched... (1) flac24; FOB AUD: 2x... (2) flac16; FOB AUD: 2x... (2) flac16; Matrix: 60%... (0) flac24; Set 2 AUD:... (0) flac16; Recorded By... (0)
Date User Comment