Browse Collections Artists Sources   Search Dates

Add Show    List Management    Help


Grateful Dead 10/04/81
Rainbow Theater, London, England
Comments Add Comment    Source Collectors    Add to Collection    Add to Want List    History
Source # 127286 Other Sources
Entered by Gary Field
Checksums ffp , flac-md5
Disc Counts 0 / 0
Media Size Compressed: 2.34 GB (2513405436 bytes)
Date Circulated
Date Added
03/07/2014
03/08/2014
Source Summary flac24; Partial Audience Recording TCD-5M> beyer M-88 Right side; Transfered 1st gen cassette>Sony TCKA-3Es>USBPre 2 
  Archive
Source Information - Download Text | Download Zip
The Grateful Dead
The Rainbow Theater
1981-10-04

24bit/96kHz file-set

s1t01 tuning/Bobby talks Hitler
s1t02 Jack Straw
s1t03 Friend of the Devil
s1t04 El Paso
s1t05 Jackaroe
s1t06 Beat it on Down the Line
s1t07 Brown Eyed Women
s1t08 Minglewood
s1t09 Row Jimmy
s1t10 Let it Grow
s1t11 Deal


s2t01 Cold Rain & Snow
s2t02 Samson & Delilah
s2t03 Scarlet Begonias
s2t04 Fire on the Mountain


Recorded TCD-5M> beyer M-88 Right side
Transfered 1st gen cassette>Sony TCKA-3Es>USBPre 2

Create checksum file log saved to file.
    length     expanded size    cdr  WAVE problems  fmt   ratio  filename
     3:23.630     117291164 B   cxx   --   ---xx   flac  0.6164  gd1981-10-04s1t01.flac
     6:21.106     219517070 B   cxx   --   ---xx   flac  0.6530  gd1981-10-04s1t02.flac
     9:11.523     317677346 B   cxx   --   ---xx   flac  0.6398  gd1981-10-04s1t03.flac
     5:24.319     186807794 B   cxx   --   ---xx   flac  0.6421  gd1981-10-04s1t04.flac
     5:00.589     173139458 B   cxx   --   ---xx   flac  0.6452  gd1981-10-04s1t05.flac
     3:10.228     109571648 B   cxx   --   ---xx   flac  0.6582  gd1981-10-04s1t06.flac
     5:08.098     177464522 B   cxx   --   ---xx   flac  0.6544  gd1981-10-04s1t07.flac
     7:15.160     250652138 B   cxx   --   ---xx   flac  0.6500  gd1981-10-04s1t08.flac
    10:57.221     378559538 B   cxx   --   ---xx   flac  0.6444  gd1981-10-04s1t09.flac
    12:03.612     416800370 B   cxx   --   ---xx   flac  0.6436  gd1981-10-04s1t10.flac
     8:56.678     309126338 B   cxx   --   ---xx   flac  0.6386  gd1981-10-04s1t11.flac
     6:32.294     225961244 B   cxx   --   ---xx   flac  0.6013  gd1981-10-04s2t01.flac
     7:36.733     263078534 B   cxx   --   ---xx   flac  0.6000  gd1981-10-04s2t02.flac
    12:36.595     435798818 B   cxx   --   ---xx   flac  0.6028  gd1981-10-04s2t03.flac
    11:42.488     404632970 B   cxx   --   ---xx   flac  0.6071  gd1981-10-04s2t04.flac
   115:20.275    3986078952 B                            0.6305  (15 files)



Show Checksums
ffp
gd1981-10-04s1t01.flac:51d7f71b0cdfe8471ac55907892ce4b1
gd1981-10-04s1t02.flac:1ce0a4463a2e3b1ad7ec1bd853972dbc
gd1981-10-04s1t03.flac:1d74e764f1e068cb0d3af1f5cfa1d7e7
gd1981-10-04s1t04.flac:3b70222fb7cb0fcce9cbe8e15b80a81c
gd1981-10-04s1t05.flac:88c0ee868b758175efc8e1cd4cea243d
gd1981-10-04s1t06.flac:9b301503844f8cad946bc06109da9087
gd1981-10-04s1t07.flac:0608f3ad9bf6508b34492d0b4c9e4642
gd1981-10-04s1t08.flac:eee2383fabaaba6bf1812ed7bd2754e3
gd1981-10-04s1t09.flac:3efc52ef17a7781a43be5c7a3e19829b
gd1981-10-04s1t10.flac:0a9afcd85d5b3ab8521e2becc39ba9af
gd1981-10-04s1t11.flac:0df6a3d27a372fea2b80d37eb13e6469
gd1981-10-04s2t01.flac:f60e61d4162903a79340f19adcc273d3
gd1981-10-04s2t02.flac:e4a621e2e39f0c95d1876f1019c86102
gd1981-10-04s2t03.flac:394b7fa8d0ff6492a512c82853a48784
gd1981-10-04s2t04.flac:fbc63f76b1ecbab4542c9ae6aaf7786e
flac-md5
eb1cc0c6387d2641308a3b687f02bfce *gd1981-10-04s1t01.flac
7abacc95a4ff3b019715efdebf4b8f28 *gd1981-10-04s1t02.flac
a6495b7196b158491b24b764b43ba95e *gd1981-10-04s1t03.flac
4003ef6d52e8a9cf523afb94074d883f *gd1981-10-04s1t04.flac
275d1b96622f361b65317096d6ca3ed5 *gd1981-10-04s1t05.flac
0ebe38763d2eb7da279e82f2b5091a1b *gd1981-10-04s1t06.flac
7d9f678f624802e66849f34138db655c *gd1981-10-04s1t07.flac
41d3577861b1fb95f8838dc4ffc621c7 *gd1981-10-04s1t08.flac
6aaae1a5cd8630c92163b39b94ba4349 *gd1981-10-04s1t09.flac
f4ce7837343607e72c26aa8977af5fa2 *gd1981-10-04s1t10.flac
905f05ba090c02ea3d7720b3c93145b1 *gd1981-10-04s1t11.flac
696d68600309d5a13963d3d5baf807fd *gd1981-10-04s2t01.flac
2d888edeff81a57e5c7b1260f5c064dc *gd1981-10-04s2t02.flac
240cd3765920429221a5de10865720ec *gd1981-10-04s2t03.flac
38fa108af212407af7d6a9729d681b3f *gd1981-10-04s2t04.flac

Comments
Add Comment
Other Sources (comments)
Source 1:... (2) flac16; Source: SBD... (0) flac16; Sbd > CM? >... (0)
Date User Comment