Browse Collections Artists Sources   Search Dates

Add Show    List Management    Help


Grateful Dead 05/12/80
Boston Garden, Boston, MA
Comments Add Comment    Source Collectors    Add to Collection    Add to Want List    History
Source # 127287 Other Sources
Entered by Matt Vernon
Checksums flac-md5 , ffp
Disc Counts 0 / 0
Media Size Compressed: 1.54 GB (1654501476 bytes)
Date Circulated
Date Added
03/09/2014
03/08/2014
Source Summary flac16; Matrix 70% sbd/30% aud; Soundboard source: SBD > Cassette Master > Reel > Dat (48k); Transfer Info: Dat (Sony R500) > Sound Devices 744T > Samplitude Professional v10.02 > Cool Edit Pro v2.0 > FLAC; All Transfers and Mastering By Charlie Miller and Audience source: 2x Nakamichi CM300/CP1's > Sony TC-153SD > Maxell XLII's. Mics on stand, set up in center of upper balcony behind the stage, mics pointed at rear-facing P.A. Taped by Tim Friend. Transfer: MAC > Re-shelled > Nakamichi DR-8 > Edirol FA-66 > Wavelab 2448 > R8Brain > CD-Wave > TLH > FLAC 16; Transfer by Andrew F. 
  Archive
Source Information - Download Text | Download Zip
Grateful Dead
Boston Garden

Boston, MA

05/12/1980




matrix 70% sbd/30% aud


Soundboard source: SBD > Cassette Master > Reel > Dat (48k)
Transfer Info: Dat (Sony R500) > Sound Devices 744T > Samplitude Professional v10.02 > Cool Edit Pro v2.0 > FLAC
All Transfers and Mastering By Charlie Miller
[email protected]
June 10, 2008


Audience source: 2x Nakamichi CM300/CP1's > Sony TC-153SD > Maxell XLII's.

                          Mics on stand, set up in center of upper balcony behind the
stage, mics pointed at rear-facing P.A.
                          Taped by Tim Friend.


Transfer: MAC > Re-shelled > Nakamichi DR-8 > Edirol FA-66 >
Wavelab 2448 > R8Brain > CD-Wave > TLH > FLAC 16
               Transfer by Andrew F. 04/2010




Set I

01   crowd/tuning

02   Jack Straw >

03   Alabama Getaway >

04   El Paso

05   Althea

06   Lazy Lightnin' >
07   Supplication
08   crowd/tuning
09   Far From Me
10   Minglewood Blues

11   crowd/tuning
12   China Cat Sunflower >

13   I Know You Rider




Set II

01   crowd/tuning

02   Feel Like A Stranger
03   crowd/tuning


04   Ship of Fools
05   Estimated Prophet >

06   He's Gone >

07   Caution Jam >

08   Drums >

09   Space >

10   Saint Of Circumstance >

11   Wharf Rat >

12   Sugar Magnolia

13   crowd/tuning


encore

14   U.S. Blues





Notes:

- Before creating the matrix I took out some of the natural reverb from the aud with iZotope RX3 Advanced.
  This gives a clearer overall sound to the matrix.
- I also made some level adjustments to both sources to balance the sound.
- matrix created in Adobe Audition 3


Thanks to all involved.


This is for a friend who tells me I should listen to more Brent shows ;-)


edited and mastered
SIRMick
March 2014


shntool output:

    length     expanded size    cdr  WAVE problems  fmt   ratio  filename
     1:59.22       21043388 B   ---   --   ---xx   flac  0.4751  gd1980-05-12s1t01.flac
     5:36.52       59392748 B   ---   --   ---xx   flac  0.5673  gd1980-05-12s1t02.flac
     5:03.55       53578604 B   ---   --   ---xx   flac  0.5907  gd1980-05-12s1t03.flac
     5:06.49       54093692 B   ---   --   ---xx   flac  0.5386  gd1980-05-12s1t04.flac
     9:21.28       99026300 B   ---   --   ---xx   flac  0.5461  gd1980-05-12s1t05.flac
     3:38.26       38516396 B   ---   --   ---xx   flac  0.5679  gd1980-05-12s1t06.flac
     4:52.58       51645260 B   ---   --   ---xx   flac  0.5795  gd1980-05-12s1t07.flac
     1:31.20       16099484 B   ---   --   ---xx   flac  0.4464  gd1980-05-12s1t08.flac
     3:46.13       39897020 B   ---   --   ---xx   flac  0.5832  gd1980-05-12s1t09.flac
     7:35.09       80283212 B   ---   --   ---xx   flac  0.5920  gd1980-05-12s1t10.flac
     1:15.45       13335884 B   ---   --   ---xx   flac  0.4623  gd1980-05-12s1t11.flac
     5:39.12       59827868 B   ---   --   ---xx   flac  0.5542  gd1980-05-12s1t12.flac
     6:44.27       71329148 B   ---   --   ---xx   flac  0.5767  gd1980-05-12s1t13.flac
     1:24.09       14838812 B   ---   --   ---xx   flac  0.4808  gd1980-05-12s2t01.flac
     8:32.63       90465020 B   ---   --   ---xx   flac  0.5828  gd1980-05-12s2t02.flac
     2:43.52       28875548 B   ---   --   ---xx   flac  0.5092  gd1980-05-12s2t03.flac
     8:19.15       88058924 B   ---   --   ---xx   flac  0.5544  gd1980-05-12s2t04.flac
    11:20.66      120107276 B   ---   --   ---xx   flac  0.5778  gd1980-05-12s2t05.flac
    12:11.10      128971964 B   ---   --   ---xx   flac  0.5614  gd1980-05-12s2t06.flac
     9:26.19       99887132 B   ---   --   ---xx   flac  0.5725  gd1980-05-12s2t07.flac
     8:33.33       90570860 B   ---   --   ---xx   flac  0.5259  gd1980-05-12s2t08.flac
     2:16.50       24108044 B   ---   --   ---xx   flac  0.5045  gd1980-05-12s2t09.flac
     5:25.60       57471164 B   ---   --   ---xx   flac  0.5886  gd1980-05-12s2t10.flac
     8:51.63       93816620 B   ---   --   ---xx   flac  0.5417  gd1980-05-12s2t11.flac
     7:45.42       82124828 B   ---   --   ---xx   flac  0.5975  gd1980-05-12s2t12.flac
     1:49.04       19237052 B   ---   --   ---xx   flac  0.5055  gd1980-05-12s2t13.flac
     5:28.17       57899228 B   ---   --   ---xx   flac  0.5877  gd1980-05-12s2t14.flac
   156:19.19     1654501476 B                            0.5612  (27 files)


Show Checksums
flac-md5
2d414f90c0f5ea538d2abb06bd1fd01b *gd1980-05-12s1t01.flac
1186b3336412dcf6ebcf06fecf51eaae *gd1980-05-12s1t02.flac
2c8cbc4240f781c899cf41d38682b95f *gd1980-05-12s1t03.flac
6f82bef2a8027ad2e68d721fd7bdee9c *gd1980-05-12s1t04.flac
67fa85bd0b2827e997f2274dfead36e3 *gd1980-05-12s1t05.flac
51713fac313d619908e3c8fe7046b7c5 *gd1980-05-12s1t06.flac
fcca3d95be10db0f4d58f66a3a143df8 *gd1980-05-12s1t07.flac
e01dea18367c8bfaef7f9508ef9563c1 *gd1980-05-12s1t08.flac
8fa0e4958c4dad898bd003ceef416e9c *gd1980-05-12s1t09.flac
33ef1cd9d18ac76aec4befa37dba5e3e *gd1980-05-12s1t10.flac
e5640163422b1876d37c088376d6b43a *gd1980-05-12s1t11.flac
44353ef98de0d394eecf8505514d14ff *gd1980-05-12s1t12.flac
2380febb67cb84897e1d2a30c7aed3e8 *gd1980-05-12s1t13.flac
10d7c182da3b84dc01e9445705ca0dbe *gd1980-05-12s2t01.flac
855c2a4fd07f1c8a94f0e8bf45c8a92e *gd1980-05-12s2t02.flac
628b0679bd83c77a83301b25f95abc39 *gd1980-05-12s2t03.flac
8cc0a3cd12cd190c92fef4c0aee991dd *gd1980-05-12s2t04.flac
40ea840497b972ca006ee4e70c8b7309 *gd1980-05-12s2t05.flac
e79fd39f72d06145e0055aaddd64191d *gd1980-05-12s2t06.flac
dc79a0f147d74eaaa44b11fdbd951c1f *gd1980-05-12s2t07.flac
163186ef6aea738820886635921adea2 *gd1980-05-12s2t08.flac
d7e0038d101cdd9547f06234538988a4 *gd1980-05-12s2t09.flac
7aee555b667748a7e18ae3c95b959a23 *gd1980-05-12s2t10.flac
d82ea9176b7c59062ab720a136cf3d17 *gd1980-05-12s2t11.flac
e7a6100fd6539e0e306ca5f7a36d0812 *gd1980-05-12s2t12.flac
09faffa8df0bdd1971a20bd9106f3252 *gd1980-05-12s2t13.flac
f9519e1807e5f4614621cf129007b525 *gd1980-05-12s2t14.flac
ffp
gd1980-05-12s1t01.flac:e65fc809fd10678c8c8a46727165f8da
gd1980-05-12s1t02.flac:c954143b57fd455b46166544dd61da58
gd1980-05-12s1t03.flac:d3040591cdf53dda0f804d35497d27c9
gd1980-05-12s1t04.flac:af3e89a0b0cfa6c4932c98df9f98132c
gd1980-05-12s1t05.flac:8edd36a6290ecf3ad8602215e74d0cf6
gd1980-05-12s1t06.flac:0d907c639cfce7448ec91d32b0e54f30
gd1980-05-12s1t07.flac:095cc6f6562b5d529cad91fdf04be08b
gd1980-05-12s1t08.flac:15ee25ecfcf6f2e74ac94f2fb104409d
gd1980-05-12s1t09.flac:d0c834dbd20d3b54c17fa05a12723abb
gd1980-05-12s1t10.flac:04c241bb18cf90d5317b69916970e2d1
gd1980-05-12s1t11.flac:d037daa516611bebfe8fc7b3e4023b04
gd1980-05-12s1t12.flac:63716754e32acc7f69a73987e015440c
gd1980-05-12s1t13.flac:a2a38fbcd611007c1ae61a89432062bf
gd1980-05-12s2t01.flac:db1c58d86e04fae14728667429a7ea89
gd1980-05-12s2t02.flac:911f87450284198c1ecaf23d9a7ae4c5
gd1980-05-12s2t03.flac:7a6687dd1262414a90cdb057a931c9ce
gd1980-05-12s2t04.flac:d380a0c4995326e1911c8c1f448ac0e3
gd1980-05-12s2t05.flac:6e1ae4a82a5cf77e92d5ab07b62205d0
gd1980-05-12s2t06.flac:b0a3219e3850f365e7369e7bd9ae429f
gd1980-05-12s2t07.flac:8c56fbb58adec2d45d4fac99abf236d9
gd1980-05-12s2t08.flac:d2411aec9cab311fb4ce3e01943e5ea7
gd1980-05-12s2t09.flac:b068a0df20a265ffc3456f64583587a2
gd1980-05-12s2t10.flac:efde7e1c604d9d23fe38b7a1c710c502
gd1980-05-12s2t11.flac:8bcf8052c2d918726ba1c7357c122916
gd1980-05-12s2t12.flac:dba04c1d469f6308e44362ce30bfa5af
gd1980-05-12s2t13.flac:3ff1eb05cdb59a36b52cc135ec1cdead
gd1980-05-12s2t14.flac:11aeaad459ca779b1d74f0ce60413518

Comments
Add Comment
Other Sources (comments)
Recording by Steve Rolfe:... (1) flac16; Recording... (2) flac16 Recording... (0) flac16; Source: Sony... (0) flac24; AUD: 2x... (2) flac16; AUD: 2x... (2)
Date User Comment