Browse Collections Artists Sources   Search Dates

Add Show    List Management    Help


Garcia 02/11/81
The Palladium, New York, NY
Comments Add Comment    Source Collectors    Add to Collection    Add to Want List    History
Source # 127292 Other Sources
Entered by Joe Jupille
Checksums ffp , flac-md5
Disc Counts 0 / 0
Media Size Compressed: 1.63 GB (1755566980 bytes)
Date Circulated
Date Added
03/01/2014
03/09/2014
Source Summary JGB; flac2496; s1 partial; Recorded by Richie Stankiewicz, 1st row balcony center Sony TCD-5M Beyer M-160 Transfer MAC>Sony TCKA-3es>USBPre2; transferred by Richie Stankiewicz. 
Source Information - Download Text | Download Zip
The Jerry Garcia Band
The Palladium
New York City
1981-02-11 (partial)

24bit/96kHz file-set

s1t01 How Sweet It Is
s1t02 Catfish John
s1t03 That's What Love Will Make You Do
s1t04 Mississippi Moon
s1t05 Tore Up Over You
s1t06 Tangled Up In Blue
s1t07 I'll Take A Melody



Recorded 1st row balcony center
Sony TCD-5M Beyer M-160
Transfer MAC>Sony TCKA-3es>USBPre2
Recorded and transfered by Richie Stankiewicz

Create checksum file log saved to file.
    length     expanded size    cdr  WAVE problems  fmt   ratio  filename
     1:05.706      37846736 B   cxx   --   ---xx   flac  0.6491  jgb1981-02-11s1t01.flac
     7:31.884     260285006 B   cxx   --   ---xx   flac  0.6722  jgb1981-02-11s1t02.flac
    10:48.092     373301198 B   cxx   --   ---xx   flac  0.6688  jgb1981-02-11s1t03.flac
     9:57.400     344102174 B   cxx   --   ---xx   flac  0.6793  jgb1981-02-11s1t04.flac
    12:30.549     432316418 B   cxx   --   ---xx   flac  0.6501  jgb1981-02-11s1t05.flac
     9:29.977     328306826 B   cxx   --   ---xx   flac  0.6705  jgb1981-02-11s1t06.flac
     9:20.904     323080568 B   cxx   --   ---xx   flac  0.6772  jgb1981-02-11s1t07.flac
    15:25.206     532918538 B   cxx   --   ---xx   flac  0.6617  jgb1981-02-11s2t01.flac
    76:09.717    2632157464 B                            0.6670  (8 files)

No errors occured.

Audio file details log saved to file.


Show Checksums
ffp
jgb1981-02-11s1t01.flac:9d8a2ae77645afe238be7c5690141e7a
jgb1981-02-11s1t02.flac:6b94b39062e9085649adf8b18c77a9a4
jgb1981-02-11s1t03.flac:8333722249bd49624a6669145bfdd0f6
jgb1981-02-11s1t04.flac:05feb56133d9a7701bc77f6f5781c7d7
jgb1981-02-11s1t05.flac:b9224b4fb60897dfdd46fd0677c3894b
jgb1981-02-11s1t06.flac:148ba55f52f506dc0533d26dc2b3ba10
jgb1981-02-11s1t07.flac:caca4ff736c93c540bd2b147fb32c263
jgb1981-02-11s2t01.flac:674a629710e24324411ad7c2d1f9b1f2
flac-md5
4fba8abe20b9aeb99458d0399c6521b3 *jgb1981-02-11s1t01.flac
4d099bb1dcb3647932fbe087777458db *jgb1981-02-11s1t02.flac
844c52fec038a79d0331ea8839224fa5 *jgb1981-02-11s1t03.flac
d0377e3e68198aaf85d975e3cf1f8eb5 *jgb1981-02-11s1t04.flac
bf508b7a85703a420e248a5ed22d6194 *jgb1981-02-11s1t05.flac
67c4b802c1ab2c0bbf7faf14ef8fa005 *jgb1981-02-11s1t06.flac
c4920b6d17c7eb0342414afb32cdb448 *jgb1981-02-11s1t07.flac
977a3d39cbb83a09dd1e623134060899 *jgb1981-02-11s2t01.flac

Comments
Add Comment
Other Sources (comments)
Source: MAC(Beyer M 160's,... (3) JGB: Jim Wise Master... (0) JGB: Jim Vita's MAC (2... (0) JGB; flac1644; David... (0) flac2496; Recorded... (0)
Date User Comment