Browse Collections Artists Sources   Search Dates

Add Show    List Management    Help


Garcia 11/10/81
The Palladium, New York, NY
Comments Add Comment    Source Collectors    Add to Collection    Add to Want List    History
Source # 127293 Other Sources
Entered by Joe Jupille
Checksums ffp , flac-md5
Disc Counts 0 / 0
Media Size Compressed: 1.9 GB (2041939916 bytes)
Date Circulated
Date Added
03/08/2014
03/09/2014
Source Summary JGB; flac2496; Recorded by Richie Stankiewicz, Sony TCD-5m > Beyer M-160 1st Row Balcony Transfer MAC>Sony TCKA3ES>USBPre 2; transferred by Richie Stankiewicz 
Source Information - Download Text | Download Zip
the Jerry Garcia Band
The Palladium (partial)
New York City
11-10-1981

24bit/96kHz file-set

s1t01 The Way You Do the Things You Do
s1t02 They Love Each Other
s1t03 Knockin' on Heavens Door
s1t04 Mystery Train
s1t05 I'll take a Melody
s1t06 Don't Let Go
s1t07 Dixie
s1t08 Dear Prudence
s1t09 Tangled Up in Blue

Recorded Sony TCD-5m > Beyer M-160
1st Row Balcony
Transfer MAC>Sony TCKA3ES>USBPre 2
Recorded and transfered by Richie Stankiewicz

Create checksum file log saved to file.
    length     expanded size    cdr  WAVE problems  fmt   ratio  filename
     6:48.538     235318202 B   cxx   --   ---xx   flac  0.6770  jgb1981-11-10s1t01.flac
     7:20.733     253862420 B   cxx   --   ---xx   flac  0.6696  jgb1981-11-10s1t02.flac
    12:10.951     421028042 B   cxx   --   ---xx   flac  0.6707  jgb1981-11-10s1t03.flac
     7:34.188     261612452 B   cxx   --   ---xx   flac  0.6860  jgb1981-11-10s1t04.flac
    11:51.552     409854140 B   cxx   --   ---xx   flac  0.6739  jgb1981-11-10s1t05.flac
     9:52.257     341139812 B   cxx   --   ---xx   flac  0.6816  jgb1981-11-10s1t06.flac
     8:33.617     295843538 B   cxx   --   ---xx   flac  0.6848  jgb1981-11-10s1t07.flac
    10:44.097     371000168 B   cxx   --   ---xx   flac  0.6874  jgb1981-11-10s1t08.flac
    11:46.818     407127380 B   cxx   --   ---xx   flac  0.6987  jgb1981-11-10s1t09.flac
    86:42.753    2996786154 B                            0.6814  (9 files)

No errors occured.



Show Checksums
ffp
jgb1981-11-10s1t01.flac:ef3abf5a2b6465817b005a6f0311c5d7
jgb1981-11-10s1t02.flac:9c9de4af46bbda252b1f8e2f11f3c823
jgb1981-11-10s1t03.flac:d9f70700c1e3a5e14660d8594180b554
jgb1981-11-10s1t04.flac:a8f21a6f0e6164d441327db18d9fd3cd
jgb1981-11-10s1t05.flac:e771ed8159df1d98992f2349bee23283
jgb1981-11-10s1t06.flac:25c4c38de666573b1c5e575711091bf0
jgb1981-11-10s1t07.flac:4bab5a996c565d32bc9a5486ec6a104e
jgb1981-11-10s1t08.flac:3a1f836ce5aa431216a86247952b6a59
jgb1981-11-10s1t09.flac:9803e8a4bbe789a42e803c9bc568bcbc
flac-md5
c78833d8c210cba2c5a28d6269203a98 *jgb1981-11-10s1t01.flac
f5996a07842936c143de93e36ffc5340 *jgb1981-11-10s1t02.flac
b9d22099f8ca4a290d6ec93503762fbe *jgb1981-11-10s1t03.flac
bc98fa34927e138677d927e3aa748b84 *jgb1981-11-10s1t04.flac
3899fd7ae4050c4029ea5afac1772763 *jgb1981-11-10s1t05.flac
77732d53c3322ad98b48ae60af16d3ec *jgb1981-11-10s1t06.flac
1ca84673574d89a33332a380b7016f87 *jgb1981-11-10s1t07.flac
59a97b4711c617a12b8957c832647a35 *jgb1981-11-10s1t08.flac
35564c4daf992a38c31df25c43a511af *jgb1981-11-10s1t09.flac

Comments
Add Comment
Other Sources (comments)
Jerry Garcia Band: Late... (7)
Date User Comment