Browse Collections Artists Sources   Search Dates

Add Show    List Management    Help


Grateful Dead 05/13/79
Cumberland County Civic Center, Portland, ME
Comments Add Comment    Source Collectors    Add to Collection    Add to Want List    History
Source # 127354 Other Sources
Entered by Gary Field
Checksums flac-md5 , ffp
Disc Counts 0 / 0
Media Size Compressed: 2.79 MB (2925527 bytes)
Date Circulated
Date Added
03/14/2014
03/15/2014
Source Summary flac24; First Set Nakamichi 550>AKG 222e; Second set Nakamichi 550>Sen 441; First Set MAC>Nakamichi 1000II>Sound Device USBPre2; Second set 1st Gen>Nakamichi 1000II>Sound Devices USBPre2; Various patches made with Barry Glassbergs recording; First set Recorded by Richie Stankiewicz; Second set Recorded By Dave Wienman; All transfered by Richie Stankiewicz 
  Archive
Source Information - Download Text | Download Zip
Grateful Dead
Cumberland County Civic Center
Portland, Maine
1979-05-13


24bit/96kHz file-set

s1t01 Sugaree
s1t02 "take a step back"
s1t03 Mama Tried
s1t04 Mexicali Blues
s1t05 Jackaroe
s1t06 It's All Over Now
s1t07 Candyman
s1t08  El Paso
s1t09 Row Jimmy
s1t010 Jack Straw

s2t01 Scarlet Begonias
s2t02 Fire on the Mountain
s2t03 Estimated Prophet
s2t04 He's Gone
s2t05 Truckin'
s2t06 Nobody's Fault But Mine
s2t07 Jam
s2t08 Drums
s2t09 Space
s2t10 Wharf Rat
s2t11 Around and Around
s2t12 U.S. Blues

First Set Nakamichi 550>AKG 222e
Second set Nakamichi 550>Sen 441
First Set MAC>Nakamichi 1000II>Sound Device USBPre2
Second set 1st Gen>Nakamichi 1000II>Sound Devices USBPre2
Various patches made with Barry Glassbergs recording
First set Recorded by Richie Stankiewicz (busted during Scarlet)in the "Sweet Spot"
Second set Recorded By Dave Wienman (philly Dave)next to me in the "Sweet Spot"
All transfered by Richie Stankiewicz

No errors occured.
    length     expanded size    cdr  WAVE problems  fmt   ratio  filename
    14:50.749     513071666 B   cxx   --   ---xx   flac  0.6225  gd1979-05-13s1t01.flac
     0:51.608      29725964 B   cxx   --   ---xx   flac  0.6048  gd1979-05-13s1t02.flac
     2:29.543      86136944 B   cxx   --   ---xx   flac  0.6237  gd1979-05-13s1t03.flac
     4:37.658     159930788 B   cxx   --   ---xx   flac  0.6218  gd1979-05-13s1t04.flac
     5:25.054     187230926 B   cxx   --   ---xx   flac  0.6262  gd1979-05-13s1t05.flac
     8:44.355     302028686 B   cxx   --   ---xx   flac  0.6254  gd1979-05-13s1t06.flac
     7:30.954     259749716 B   cxx   --   ---xx   flac  0.6135  gd1979-05-13s1t07.flac
     4:21.505     150626654 B   cxx   --   ---xx   flac  0.6180  gd1979-05-13s1t08.flac
    11:39.852     403114676 B   cxx   --   ---xx   flac  0.6063  gd1979-05-13s1t09.flac
     6:43.783     232578974 B   cxx   --   ---xx   flac  0.6312  gd1979-05-13s1t10.flac
    12:38.657     436986692 B   cxx   --   ---xx   flac  0.3211  gd1979-05-13s2t01.flac
    11:24.235     394119356 B   cxx   --   ---xx   flac  0.3213  gd1979-05-13s2t02.flac
    12:07.558     419073722 B   cxx   --   ---xx   flac  0.3283  gd1979-05-13s2t03.flac
    11:07.456     384454880 B   cxx   --   ---xx   flac  0.3106  gd1979-05-13s2t04.flac
     7:10.478     247955594 B   cxx   --   ---xx   flac  0.6508  gd1979-05-13s2t05.flac
     4:21.507     150627962 B   cxx   --   ---xx   flac  0.3092  gd1979-05-13s2t06.flac
     6:59.657     241722236 B   cxx   --   ---xx   flac  0.2865  gd1979-05-13s2t07.flac
     9:24.264     325016096 B   cxx   --   ---xx   flac  0.6156  gd1979-05-13s2t08.flac
     3:35.757     124276352 B   cxx   --   ---xx   flac  0.2651  gd1979-05-13s2t09.flac
    10:21.832     358175060 B   cxx   --   ---xx   flac  0.6282  gd1979-05-13s2t10.flac
     8:08.065     281125628 B   cxx   --   ---xx   flac  0.6278  gd1979-05-13s2t11.flac
     5:34.780     192833108 B   cxx   --   ---xx   flac  0.6433  gd1979-05-13s2t12.flac
   170:09.307    5880561680 B                            0.5102  (22 files)

No errors occured.



Show Checksums
flac-md5
4fbf7303c394bbf912047218fda47da0 *gd1979-05-13s1t01.flac
acf695282a98670d1ecf24960db7f462 *gd1979-05-13s1t02.flac
5395101b4e01195e4b1760a2bf614f4b *gd1979-05-13s1t03.flac
322e4aed48b10a9f5b3e952115fa01bd *gd1979-05-13s1t04.flac
2960b9cb9c1e3f46b19d1ccd279ddb9a *gd1979-05-13s1t05.flac
6df01fd5055ef2ec60380586cb814fe3 *gd1979-05-13s1t06.flac
eb329ea912a31bf9d5714186ae029135 *gd1979-05-13s1t07.flac
4ae66e0865d2c50941414915e94ca6d2 *gd1979-05-13s1t08.flac
63c9d8f8997c96b8151e4b6b19514dea *gd1979-05-13s1t09.flac
d8dcd6ee71c5ddc5965cdbe3340bf741 *gd1979-05-13s1t10.flac
124ebdb59f6f75f62141e08a1faa04a2 *gd1979-05-13s2t01.flac
ef45d358efb7fc3a3ffad8add3a0038c *gd1979-05-13s2t02.flac
8a527e9ca1fde5e5c2eaaf6b37f683d9 *gd1979-05-13s2t03.flac
8e21ac566571377182cf796d1ce5f203 *gd1979-05-13s2t04.flac
db61e676e1d1e102390759c41af51288 *gd1979-05-13s2t05.flac
814f580158f2c2a1274e16e4de16ff35 *gd1979-05-13s2t06.flac
b44c00df2dec7c63ca0e47242183ef13 *gd1979-05-13s2t07.flac
b887910621cb6fbc5b5a3eb95f8817ba *gd1979-05-13s2t08.flac
7e553bb4d96bb270bafce1fdb378d2c3 *gd1979-05-13s2t09.flac
3a82d814207f0de6921f8cbdf8e1eddc *gd1979-05-13s2t10.flac
3de87a7b2de8995a979e30d4080cec0b *gd1979-05-13s2t11.flac
d557d8bee9c15116556eb9e691037beb *gd1979-05-13s2t12.flac
ffp
gd1979-05-13s1t01.flac:cf9876020d45f7d2ef0c39ba0742bb72
gd1979-05-13s1t02.flac:73f42a23a80827a4690faa4e2a7caa1d
gd1979-05-13s1t03.flac:c6b4be8679079b34ab42fcb44ef1894d
gd1979-05-13s1t04.flac:2132ed18405ef1f9da6a1ae0d1521438
gd1979-05-13s1t05.flac:531c4b96314cdcace2115e3a8213e04f
gd1979-05-13s1t06.flac:7d2bfbcca6ddae6a64b3742c47999914
gd1979-05-13s1t07.flac:df6fac1c20ef1cef66c86d532c51e081
gd1979-05-13s1t08.flac:daffd8b56b3227f7ff86047ecfad7b6a
gd1979-05-13s1t09.flac:8abdfee20753052623fb05c8351df542
gd1979-05-13s1t10.flac:b7a2a8fd60fdded281064539e4d1675a
gd1979-05-13s2t01.flac:5e8ce6106772ec6b12f4b70e8efb2350
gd1979-05-13s2t02.flac:76e1f2642847ec899799d51c14099c68
gd1979-05-13s2t03.flac:5aed70736f343cb0924b5c230d73770e
gd1979-05-13s2t04.flac:9b5d8751dfc6d041a11cd99f612f3fe2
gd1979-05-13s2t05.flac:f1c8e515ebfd6e03fac695965ef65776
gd1979-05-13s2t06.flac:4677aa1ef5bb6f67cda67043141a76cc
gd1979-05-13s2t07.flac:0b1373b277e14773f1e63fa54f7dc2af
gd1979-05-13s2t08.flac:7e527aba2836e538fd9c152ed2c9cb78
gd1979-05-13s2t09.flac:2bb95953773f6c7a2c6c452f64e7f3e0
gd1979-05-13s2t10.flac:b7834048bbbcbf0033d9062474d1cd55
gd1979-05-13s2t11.flac:3a8fd554fc816775992c469efee5a166
gd1979-05-13s2t12.flac:a9745f3c984c948952966492ff281bd7

Comments
Add Comment
Other Sources (comments)
Recording by Barry... (2) Recording by Barry... (0) flac16; Recording by... (0) flac24 Recording by... (0)
Date User Comment