Browse Collections Artists Sources   Search Dates

Add Show    List Management    Help


Grateful Dead 08/30/80
The Spectrum, Philadelphia, PA
Comments Add Comment    Source Collectors    Add to Collection    Add to Want List    History
Source # 127431 Other Sources
Entered by Gary Field
Checksums ffp , flac-md5
Disc Counts 0 / 0
Media Size Compressed: 445 MB (466612224 bytes)
Uncompressed: 712.24 MB (746833352 bytes)
Date Circulated
Date Added
03/22/2014
03/22/2014
Source Summary flac16; First Set only. Source: SBD > 3rd Gen cassette (Dolby C) with thanks to Jon Pasternak. Transfer: XLII (Dolby C) > Nakamichi CR5A > Edirol FA-66 > Wavelab 2448 > R8Brain > CD-Wave > TLH > FLAC 1644 tagged. 
  Archive
Source Information - Download Text | Download Zip
GRATEFUL DEAD
Spectrum
Philadelphia PA
08-30-1980
1st Set

s1t01 Feel Like a Stranger
s1t02 Peggy-O
s1t03 Cassidy
s1t04 Friend of the Devil
s1t05 Minglewood Blues
s1t06 Cold Rain & Snow >
s1t07 Looks Like Rain
s1t08 Easy to Love You
s1t09 Althea
s1t10 Jack Straw

Source: SBD > 3rd Gen cassette (Dolby C) with thanks to
Jon Pasternak.

Transfer: XLII (Dolby C) > Nakamichi CR5A > Edirol FA-66 >
Wavelab 2448 > R8Brain > CD-Wave > TLH > FLAC 1644 tagged.

Note: This tape is more clear & less muffled than ID-15408
and all its variants... As always, ymmv.

    length     expanded size    cdr  WAVE problems  fmt   ratio  filename
     8:39.43       91652780 B   ---   --   ---xx   flac  0.6395  gd1980-08-30s1t01.flac
     6:34.58       69638060 B   ---   --   ---xx   flac  0.5967  gd1980-08-30s1t02.flac
     5:11.21       54909836 B   ---   --   ---xx   flac  0.6357  gd1980-08-30s1t03.flac
     9:31.54      100851452 B   ---   --   ---xx   flac  0.6035  gd1980-08-30s1t04.flac
     7:08.39       75590972 B   ---   --   ---xx   flac  0.6273  gd1980-08-30s1t05.flac
     6:33.69       69487532 B   ---   --   ---xx   flac  0.6431  gd1980-08-30s1t06.flac
     7:54.31       83686556 B   ---   --   ---xx   flac  0.6184  gd1980-08-30s1t07.flac
     3:48.09       40240412 B   ---   --   ---xx   flac  0.6583  gd1980-08-30s1t08.flac
     8:45.45       92715884 B   ---   --   ---xx   flac  0.6125  gd1980-08-30s1t09.flac
     6:25.62       68059868 B   ---   --   ---xx   flac  0.6391  gd1980-08-30s1t10.flac
    70:33.56      746833352 B                            0.6247  (10 files)

No errors occured.



Show Checksums
ffp
gd1980-08-30s1t01.flac:140f081aacf9dfa4ee9dae46d546b272
gd1980-08-30s1t02.flac:87921d25e7e6cc8c1ac75a7afba239da
gd1980-08-30s1t03.flac:b31f3dcc7a66a6a210e62c797ad48cb8
gd1980-08-30s1t04.flac:158f1d0fcee94fff298ae043ae86ca9c
gd1980-08-30s1t05.flac:d97f7ec5b1334b549fd9442ef1c3fd53
gd1980-08-30s1t06.flac:8bd78d798343a4a51c9c5fe92f27c47b
gd1980-08-30s1t07.flac:cebaa4df6cec36c300075f74fe78d745
gd1980-08-30s1t08.flac:3fae54d31518555cca2d4d5b45f4c04e
gd1980-08-30s1t09.flac:6d2f6c7cbc0ed2c061b7797d022d3c5c
gd1980-08-30s1t10.flac:3716a73061d00a786240a67dbb035023
flac-md5
0edcb7ce34e35b5ec535a20c96f973d7 *gd1980-08-30s1t01.flac
c3a23043b66c6f77f953da63c90b1107 *gd1980-08-30s1t02.flac
de241d424d7c49740e5cfa2a6bd7573e *gd1980-08-30s1t03.flac
ccc66bc88e8be48858056781cd514965 *gd1980-08-30s1t04.flac
a486b0558a82bb25434287207090e3e4 *gd1980-08-30s1t05.flac
07f2f327b0c0433adaa4c5e712112b4c *gd1980-08-30s1t06.flac
9de952bd2ed7ac12e255886ce8f6a2e9 *gd1980-08-30s1t07.flac
6e36c7092493c09f9239d4f780493851 *gd1980-08-30s1t08.flac
eacf91175c1aa38b119c28b12accd071 *gd1980-08-30s1t09.flac
7cf5dc5a0a35cf22dea6ddae0730acdf *gd1980-08-30s1t10.flac

Comments
Add Comment
Other Sources (comments)
2nd set only;... (3) 1st Set Only; SBD>?>CD;... (0) Recording by Jim Wise:... (0) flac16; Soundboard... (3) flac16; Recording... (0) flac16; Nakamichi... (0) flac16; Set 1... (1) flac16; Recording... (0)
Date User Comment