Browse Collections Artists Sources   Search Dates

Add Show    List Management    Help


Grateful Dead 12/28/83
San Francisco Civic Auditorium, San Francisco, CA
Comments Add Comment    Source Collectors    Add to Collection    Add to Want List    History
Source # 127489 Other Sources
Entered by Matt Vernon
Checksums ffp , flac-md5
Disc Counts 0 / 0
Media Size Compressed: 836 MB (876609536 bytes)
Uncompressed: 1.33 GB (1427909444 bytes)
Date Circulated
Date Added
03/28/2014
03/27/2014
Source Summary flac16; Matrix 3 Source Mix - SBD (shnid=96172) Recording Info:SBD -> Cassette Master (Nakamichi 550/Maxell XLII-S90); Transfer Info: Cassette Master (Nakamichi DR-1) -> Sound Devices 744T (24bit/96k) -> Adobe Audition v1.5 -> Samplitude Professional v10.1 -> r8brain PRO v1.5 -> FLAC/16; All Transfers and Mastering By Charlie Miller + AUD (shn id 99126) FOB AUD: Sennheiser MD-421's > patched thru one deck (Nak 550) > Marantz PMD-340 > Sony UCX-S 90's, with Dolby. Mics on seven-foot stand, aprx 25 feet from the stage in the center, mics angled up. Transfer: MAC > Nakamichi DR-8 (Dolby) > Edirol FA-66 > Wavelab > CD-Wave > TLH > FLAC 2496. Taped and transferred by Andrew F. 05/2009 + VID (no shn id) used for patching and timing reference - matrix mixing by Kevin Tobin 
  Archive
Source Information - Download Text | Download Zip
Grateful Dead
Civic Auditorium, San Francisco, CA
December 28, 1983

SBD + AUD Matrix 3 Source Mix (50%-SBD/50%-AUD)

Set 1:
d1t01 - Feel Like A Stranger
d1t02 - Dire Wolf
d1t03 - Mama Tried ->
d1t04 - Mexicali Blues
d1t05 - Loser
d1t06 - New Minglewood Blues
d1t07 - Bird Song

Set 2:
d1t08 - China Cat Sunflower ->
d1t09 - I Know You Rider
d2t01 - Playing In The Band ->
d2t02 - Drums ->
d2t03 - Space ->
d2t04 - The Wheel ->
d2t05 - Playing Jam ->
d2t06 - The Other One ->
d2t07 - Stella Blue ->
d2t08 - Around And Around
d2t09 - Johnny B. Goode

Encore:
d2t10 - It's All Over Now, Baby Blue

Audio Source Information
Soundboard (shnid = 96172)
SBD -> Cassette Master (Nakamichi 550/Maxell XLII-S90)

Transfer Info:
Cassette Master (Nakamichi DR-1) -> Sound Devices 744T (24bit/96k) ->
Adobe Audition v1.5 -> Samplitude Professional v10.1 -> r8brain PRO v1.5 -> FLAC/16
(2 Discs Audio / 2 Discs FLAC)

All Transfers and Mastering By Charlie Miller
[email protected]
December 2, 2008

Patch Info:
(FOB) Sennheiser 441 -> Cassette Master (shnid=23061) supplies:
Bird Song (7:02 - 7:27)
Drums (7:27 - 8:33)

Notes:
-- Disc change is seamless
-- Thanks to Joani Walker and Paul Scotton for the Cassettes
-- Thanks to Joe B. Jones for his help with the pitch correction

Audience (shnid = 99126)
24bit/96kHz file-set

FOB AUD: Sennheiser MD-421's > patched thru one deck (Nak 550) > Marantz
PMD-340 > Sony UCX-S 90's, with Dolby. Mics on seven-foot stand, aprx 25
feet from the stage in the center, mics angled up.

Transfer: MAC > Nakamichi DR-8 (Dolby) > Edirol FA-66 > Wavelab > CD-Wave >
TLH > FLAC 2496. Taped and transferred by Andrew F. 05/2009

Source notes: This is the same recording as ID-20361. It's a fresh transfer
with the following improvements... The tape spools were re-shelled into
Maxell cases for smoother and more consistent playback. Transferred in 24/96.
Pitch corrected. Drop-outs and levels repaired. Tape pauses cleaned-up with
crossfades. Patches added to make show complete, from; ID-79351, in Birdsong
11:28 > 11:34, PITB 0:00 > 0:02, Space 0:32 > 0:36, Space 0:57 > 1:05, and
ID-10312, in Drums 8:34 > 8:47. Thanks to cbass for help with the patches.

VID (no shnid)
used for patching and timing standard
---------------------------------------------------------
- Mixed by [email protected]
- FLAC conversion 27-MAR-2014 - Trader Little Helper
- Tagged 27-MAR-2014 - Tag&Rename
---------------------------------------------------------
Multitrack Mixdown Settings

SET ONE

Stereo Matrix
SBD - 1
AUD - 1

SET TWO

Stereo Matrix
SBD - 1
AUD - 1
---------------------------------------------------------

Brokedown House Production

    length     expanded size    cdr  WAVE problems  fmt   ratio  filename
     7:49.11       82757516 B   ---   --   -----    wav  1.0000  gd1983-12-28d1t01.wav
     3:17.69       34913132 B   ---   --   -----    wav  1.0000  gd1983-12-28d1t02.wav
     2:39.15       28082924 B   ---   --   -----    wav  1.0000  gd1983-12-28d1t03.wav
     5:13.12       55241468 B   ---   --   -----    wav  1.0000  gd1983-12-28d1t04.wav
     6:58.12       73763468 B   ---   --   -----    wav  1.0000  gd1983-12-28d1t05.wav
     7:50.28       82973900 B   ---   --   -----    wav  1.0000  gd1983-12-28d1t06.wav
    12:31.37      132563468 B   ---   --   -----    wav  1.0000  gd1983-12-28d1t07.wav
     7:08.26       75560396 B   ---   --   -----    wav  1.0000  gd1983-12-28d1t08.wav
     6:46.49       71733692 B   ---   --   -----    wav  1.0000  gd1983-12-28d1t09.wav
    16:51.04      178349852 B   ---   --   -----    wav  1.0000  gd1983-12-28d2t01.wav
     9:26.13       99873020 B   ---   --   -----    wav  1.0000  gd1983-12-28d2t02.wav
     8:56.05       94562204 B   ---   --   -----    wav  1.0000  gd1983-12-28d2t03.wav
     5:35.39       59185772 B   ---   --   -----    wav  1.0000  gd1983-12-28d2t04.wav
     0:50.67        8977628 B   ---   --   -----    wav  1.0000  gd1983-12-28d2t05.wav
     9:30.04      100557452 B   ---   --   -----    wav  1.0000  gd1983-12-28d2t06.wav
     8:52.66       94000076 B   ---   --   -----    wav  1.0000  gd1983-12-28d2t07.wav
     3:45.72       39859388 B   ---   --   -----    wav  1.0000  gd1983-12-28d2t08.wav
     3:57.69       41969132 B   ---   --   -----    wav  1.0000  gd1983-12-28d2t09.wav
     6:53.56       72984956 B   ---   --   -----    wav  1.0000  gd1983-12-28d2t10.wav
   134:54.54     1427909444 B                            1.0000  (19 files)

Show Checksums
ffp
gd1983-12-28d1t01.flac:ca10a06c0c60016a7db89536c6fc5260
gd1983-12-28d1t02.flac:264ddd147b307b31fd1f25c9519ff84f
gd1983-12-28d1t03.flac:d8bda7a88d34d5eb5c56dd6917179a07
gd1983-12-28d1t04.flac:5a3cc82010ad40829f1ea5725ff1467a
gd1983-12-28d1t05.flac:33b4d39de53851d86c3cee66e20f5a2e
gd1983-12-28d1t06.flac:65bb0aec94078c6c3d298f7225e99384
gd1983-12-28d1t07.flac:ce1ad86adb5de80a525c7e1d7df26f9f
gd1983-12-28d1t08.flac:05300abd5478a881bbfc0673895a27a0
gd1983-12-28d1t09.flac:815fbbc716711aef64bc8869ed1c823f
gd1983-12-28d2t01.flac:081154dedf6102320eb7e7088ded3e6b
gd1983-12-28d2t02.flac:ed0428331f8c3097a9a4c6fdf1e624aa
gd1983-12-28d2t03.flac:877485dc0ca90f4cadecaa980eaf49c4
gd1983-12-28d2t04.flac:10872ba40b5ce5e8dd023b00dcb08f0f
gd1983-12-28d2t05.flac:7c1112ad2c870eededa03e97e87c9d87
gd1983-12-28d2t06.flac:3e77cc2248e99ea47e065d960095e6e3
gd1983-12-28d2t07.flac:dec6dbb9e36e41b1286615c33db561da
gd1983-12-28d2t08.flac:5e9f2810cb0aa77f063a0566dae0a5f4
gd1983-12-28d2t09.flac:5385ce11a81db4378db23cfdcf7bb4b4
gd1983-12-28d2t10.flac:b80d025f36b82e4b4d377abc4ae0e5c2
flac-md5
d1522b02a5b9c979b2fb84e585e28454 *gd1983-12-28d1t01.flac
a3b3bb916f10cc8dc0ff2607be94ef54 *gd1983-12-28d1t02.flac
7c7414608ead3aafb021fed7a8de90cf *gd1983-12-28d1t03.flac
229c077b27c6a753f2869762fe43a0ea *gd1983-12-28d1t04.flac
803bc6ffdae7fff30e4438be1e02b4f5 *gd1983-12-28d1t05.flac
2a4a4e374ed3d7f8f52505ebe1cb0fa8 *gd1983-12-28d1t06.flac
d11623985ebae15a62c751bc7757ac35 *gd1983-12-28d1t07.flac
ac874290a8ddab823bed2f631c2541dc *gd1983-12-28d1t08.flac
fc534a73980dbdf28dd4e682155666df *gd1983-12-28d1t09.flac
116413f65a2e159d42614766bf0518df *gd1983-12-28d2t01.flac
b8c9ccfb19a26ad2def1841728d18d8d *gd1983-12-28d2t02.flac
b0623dd231dc1180d21b69b6b96355f0 *gd1983-12-28d2t03.flac
ba00f29c55e72e715863c4dea4579ad9 *gd1983-12-28d2t04.flac
275c331008117a91ccdc493c27f4d98b *gd1983-12-28d2t05.flac
9c9e61799001dfc4f2f1b050d5909d3c *gd1983-12-28d2t06.flac
1746cf3d20cd543a86d89cd69409e60a *gd1983-12-28d2t07.flac
759a810fdc23f4787126c2b62faae72b *gd1983-12-28d2t08.flac
4680d0719809747dcb1e1efe05386a81 *gd1983-12-28d2t09.flac
f4b15370f93abdef54b317435478020a *gd1983-12-28d2t10.flac

Comments
Add Comment
Other Sources (comments)
SBD>MC>C>DAT>CDR; via Paul... (0) Source: FOB AUD -- Senn.... (1) flac16; Recording... (0) flac16; Source:... (0) flac16; Recording... (0) flac24; FOB AUD:... (0) flac16; FOB AUD:... (0) flac16:Recorded by... (0) flac16; Master... (0) flac24; Master... (0) flac16; source: aud... (0) flac24; source: aud... (0)
Date User Comment