Browse Collections Artists Sources   Search Dates

Add Show    List Management    Help


Grateful Dead 09/04/79
Madison Square Garden, New York, NY
Comments Add Comment    Source Collectors    Add to Collection    Add to Want List    History
Source # 127491 Other Sources
Entered by Matt Vernon
Checksums ffp , flac-md5
Disc Counts 0 / 0
Media Size Compressed: 1.47 GB (1581862616 bytes)
Date Circulated
Date Added
03/28/2014
03/28/2014
Source Summary flac24; Set 1 Recorded 6th row right center; Nakamichi 550 AKG D-222e; Transfer Nakamichi 1000II>Sound Devices USBPre2; Recorded and transfered by Richie Stankiewicz 
  Archive
Source Information - Download Text | Download Zip
Grateful Dead
Madison Square Garden
1979-09-04 First Set

24/96 file set



s1t01 Jack Straw
s1t02 Sugaree
s1t03 Me & My Uncle
s1t04 Big River
s1t05 Candyman
s1t06 Minglewood Blues
s1t07 Tennessee Jed
s1t08 Lost Sailor
s1t09 St. of Circumstance
s1t10 Deal

Recorded 6th row right center
Nakamichi 550 AKG D-222e
Transfer Nakamichi 1000II>Sound Devices USBPre2
Recorded and transfered by Richie Stankiewicz

    length     expanded size    cdr  WAVE problems  fmt   ratio  filename
     5:56.601     205402364 B   cxx   --   ---xx   flac  0.6694  gd1979-09-04s1t01.flac
    13:39.622     472102382 B   cxx   --   ---xx   flac  0.6583  gd1979-09-04s1t02.flac
     3:00.179     103783052 B   cxx   --   ---xx   flac  0.6710  gd1979-09-04s1t03.flac
     5:41.535     196724258 B   cxx   --   ---xx   flac  0.6701  gd1979-09-04s1t04.flac
     6:32.135     225869972 B   cxx   --   ---xx   flac  0.6569  gd1979-09-04s1t05.flac
     7:06.627     245737124 B   cxx   --   ---xx   flac  0.6570  gd1979-09-04s1t06.flac
     8:43.788     301702046 B   cxx   --   ---xx   flac  0.6500  gd1979-09-04s1t07.flac
     7:14.115     250050026 B   cxx   --   ---xx   flac  0.6402  gd1979-09-04s1t08.flac
     5:58.548     206523554 B   cxx   --   ---xx   flac  0.6677  gd1979-09-04s1t09.flac
     5:38.049     194716010 B   cxx   --   ---xx   flac  0.6583  gd1979-09-04s1t10.flac
    69:31.199    2402610788 B                            0.6584  (10 files)

No errors occured.

Audio file details log saved to file.


Show Checksums
ffp
gd1979-09-04s1t01.flac:1e4c9cb43660f0376519e2de14cec1ed
gd1979-09-04s1t02.flac:c2a0f07a7a7948d55ceb90a678ba8af4
gd1979-09-04s1t03.flac:d0c61306bce244ee200ff48a4e2596ac
gd1979-09-04s1t04.flac:82ef57105f7aedf8690ade93b4dc3aab
gd1979-09-04s1t05.flac:3f979fc3635396ec5e633e7a3aaab8d4
gd1979-09-04s1t06.flac:7608f549757fae4219c3d855f99a5c9c
gd1979-09-04s1t07.flac:9ca62cc6f4992c2b84b7b9289add2d91
gd1979-09-04s1t08.flac:0043ae374a80288685edd425470f4d54
gd1979-09-04s1t09.flac:2cdc289efa6acaa69a9958860236ddbc
gd1979-09-04s1t10.flac:3c3b47c8da74ef0b1d8273557ed4107f
flac-md5
0a39faed626be4dfd84d558b8efe4fa4 *gd1979-09-04s1t01.flac
7ca260f9df0994bb088b95f1c5a2e34c *gd1979-09-04s1t02.flac
33000e2a1f6ff4f79115a38c8d00a1c6 *gd1979-09-04s1t03.flac
6f069be24648298186144894fb4d20bb *gd1979-09-04s1t04.flac
849b8d29fea80cb8fac923faba60cac5 *gd1979-09-04s1t05.flac
1f24630dfc30f7b8f7685d5aa0ba59a3 *gd1979-09-04s1t06.flac
03cd013cd41e99bf5d0b6ba2f5c811b2 *gd1979-09-04s1t07.flac
a3512952511772b154ed9a1b5bddc7b6 *gd1979-09-04s1t08.flac
581cadf6f8dd9feccc47d890be2e965d *gd1979-09-04s1t09.flac
c49a72e09dda9d5c56750be03f485856 *gd1979-09-04s1t10.flac

Comments
Add Comment
Other Sources (comments)
Recording by Barry... (0) Sources: Primary Source:... (0) flac16; Recording... (0) flac16; Nakamichi... (0)
Date User Comment