Browse Collections Artists Sources   Search Dates

Add Show    List Management    Help


Grateful Dead 08/19/80
Uptown Theater, Chicago, IL
Comments Add Comment    Source Collectors    Add to Collection    Add to Want List    History
Source # 127497 Other Sources
Entered by Matt Vernon
Checksums ffp , flac-md5
Disc Counts 0 / 0
Media Size Compressed: 1.63 MB (1709178 bytes)
Date Circulated
Date Added
03/28/2014
03/28/2014
Source Summary flac24; Set 1 Recorded 1st row balcony Sennheiser 421>Sony TCD-5M>Nak 550; Patched into Neil (aka froggy RIP); transfered by Richie Stankiewicz; 1st Gen>DAT Cakewalk UA-1G 
  Archive
Source Information - Download Text | Download Zip
Grateful Dead
Uptown Theater
Chicago, IL.
24bit/96kHz file-set

s1t01 crowd
s1t02 Mississippi Half Step
s1t03 Franklin's Tower
s1t04 Minglewood
s1t05 Dire Wolf
s1t06 Cassidy
s1t07 Row Jimmy
s1t08 Me & My Uncle
s1t09 Big River
s1t10 Althea
s1t11 Easy to Love You
s1t12 Feel Like a Stranger


Recorded 1st row balcony
Sennheiser 421>Sony TCD-5M>Nak 550
Patched into Neil (aka froggy RIP)
transfered by Richie Stankiewicz
1st Gen>DAT Cakewalk UA-1G
Thank You Andrew F for giving me the dats I gave
You So Long Ago!

    length     expanded size    cdr  WAVE problems  fmt   ratio  filename
     0:28.170      16226090 B   cxx   --   ---xx   flac  0.5651  gd1980-08-19s1t01.flac
     9:58.806     344912120 B   cxx   --   ---xx   flac  0.6082  gd1980-08-19s1t02.flac
    12:20.529     426544544 B   cxx   --   ---xx   flac  0.6171  gd1980-08-19s1t03.flac
     7:37.110     263295356 B   cxx   --   ---xx   flac  0.6109  gd1980-08-19s1t04.flac
     3:36.156     124505732 B   cxx   --   ---xx   flac  0.6158  gd1980-08-19s1t05.flac
     4:48.381     166107542 B   cxx   --   ---xx   flac  0.6169  gd1980-08-19s1t06.flac
    11:46.657     407034644 B   cxx   --   ---xx   flac  0.6074  gd1980-08-19s1t07.flac
     3:14.881     112251740 B   cxx   --   ---xx   flac  0.6139  gd1980-08-19s1t08.flac
     6:46.803     234318806 B   cxx   --   ---xx   flac  0.6164  gd1980-08-19s1t09.flac
     8:39.435     299194574 B   cxx   --   ---xx   flac  0.6056  gd1980-08-19s1t10.flac
     4:54.317     169526528 B   cxx   --   ---xx   flac  0.6077  gd1980-08-19s1t11.flac
     8:50.095     305334992 B   cxx   --   ---xx   flac  0.6132  gd1980-08-19s1t12.flac
    83:01.341    2869252668 B                            0.6114  (12 files)


Show Checksums
ffp
gd1980-08-19s1t01.flac:f1a1633309fbcaed54a504beaa7b2c12
gd1980-08-19s1t02.flac:940701df7773e855d2cd01df458435bc
gd1980-08-19s1t03.flac:a3b9cf0a9e528891234019e20193fba5
gd1980-08-19s1t04.flac:730137c28ec5920da5a8ef4fffa42474
gd1980-08-19s1t05.flac:16ef134c37311457c0943a0611ee68ae
gd1980-08-19s1t06.flac:b1f6bd972c09d935639c3cac48d735e1
gd1980-08-19s1t07.flac:336d4d28a8c2f3a6c3965360ae7cffd9
gd1980-08-19s1t08.flac:6cc5d9f950c74401d5537aa30045434b
gd1980-08-19s1t09.flac:20818c6e795dd022a3785f4d35129b5b
gd1980-08-19s1t10.flac:c22c67b217309d349c288e51337152b9
gd1980-08-19s1t11.flac:cbe82fca938d0387fb37c85388afd7e4
gd1980-08-19s1t12.flac:e5249d57eed4e09abd33c558aa9e1248
flac-md5
7debbfa1c71320e1f483699c86467282 *gd1980-08-19s1t01.flac
4696cf6921ba387b26a803455f5e6e58 *gd1980-08-19s1t02.flac
9960f886e0c2ff725a2515b88629aefd *gd1980-08-19s1t03.flac
81e2ade2116f5b33049487d1a6b1ffc2 *gd1980-08-19s1t04.flac
c31d78cc0157d6feb26668960097b7ff *gd1980-08-19s1t05.flac
63259fb94d4ad6f143ca94e1f16846d7 *gd1980-08-19s1t06.flac
6f3d3b5fd2cc871fc93801dde15d88cc *gd1980-08-19s1t07.flac
82abd97a2b8eddb96ae1d9b042121a7d *gd1980-08-19s1t08.flac
2bb08b075705e2d720216838aedc874a *gd1980-08-19s1t09.flac
e3b725cc88138ac3b803997b97bd54fe *gd1980-08-19s1t10.flac
3651566db714d442b42a285fcdbdc154 *gd1980-08-19s1t11.flac
0085ec9e3047ab41e386d8ce873bd967 *gd1980-08-19s1t12.flac

Comments
Add Comment
Other Sources (comments)
Recording by Dougal... (2) set 2p; SBD > Cass(m) >... (0) flac16; Recording... (1) flac16; Partial;... (0) flac16/48kHz; Set 2... (0)
Date User Comment