Browse Collections Artists Sources   Search Dates

Add Show    List Management    Help


Grateful Dead 10/10/81
Stadthalle, Bremen, Germany
Comments Add Comment    Source Collectors    Add to Collection    Add to Want List    History
Source # 127498 Other Sources
Entered by Matt Vernon
Checksums flac-md5 , ffp
Disc Counts 0 / 0
Media Size Compressed: 3.24 MB (3397386 bytes)
Date Circulated
Date Added
03/28/2014
03/28/2014
Source Summary flac24; Recording Sony TCD-5M>Beyer M-88(ribbon); Recorded in back of Board GA concert 1/2 empty; Transfer MAC>DAT>Cakewalk UA-1G; Recording and transfer by Richie Stankiewicz 
  Archive
Source Information - Download Text | Download Zip
Grateful Dead
StadtHalle, Bremen,Germany

24bit/96kHz file-set

s1t01 Shakedown Street
s1t02 Bertha
s1t03 Minglewood
s1t04 Friend of the Devil
s1t05 El Paso
s1t06 Tennessee Jed
s1t07 Me & My Uncle
s1t08 Big River
s1t09 Bird Song
s1t10 Let it Grow
s1t11 Deal (missing)


s2t01 Woman are Smarter
s2t02 Sugaree
s2t03 Lost Sailor
s2t04 St. of Circumstance
s2t05 Eyes of the World
s2t06 Drums/
s2t07 /Space
s2t08 Truckin'
s2t09 The Other One
s2t10 Wharf Rat
s2t11 One More Saturday Night
s2t12 Casey Jones


Recording  Sony TCD-5M>Beyer M-88(ribbon)
Recorded in back of Board GA concert 1/2 empty
Transfer MAC>DAT>Cakewalk UA-1G
Thanks to Andrew F for digging up the DAT's I made for him so many years ago!
Recording and transfer by Richie Stankiewicz

    length     expanded size    cdr  WAVE problems  fmt   ratio  filename
    13:16.704     458901818 B   cxx   --   ---xx   flac  0.5868  gd1981-10-10s1t01.flac
     5:50.810     202066760 B   cxx   --   ---xx   flac  0.5955  gd1981-10-10s1t02.flac
     7:14.642     250353704 B   cxx   --   ---xx   flac  0.5924  gd1981-10-10s1t03.flac
     9:07.604     315420206 B   cxx   --   ---xx   flac  0.5840  gd1981-10-10s1t04.flac
     5:18.168     183264620 B   cxx   --   ---xx   flac  0.5868  gd1981-10-10s1t05.flac
     8:48.691     304525910 B   cxx   --   ---xx   flac  0.5831  gd1981-10-10s1t06.flac
     3:00.484     103958660 B   cxx   --   ---xx   flac  0.5876  gd1981-10-10s1t07.flac
     6:32.055     225823862 B   cxx   --   ---xx   flac  0.5853  gd1981-10-10s1t08.flac
    12:31.859     433070684 B   cxx   --   ---xx   flac  0.5823  gd1981-10-10s1t09.flac
    13:35.918     469968674 B   cxx   --   ---xx   flac  0.5907  gd1981-10-10s1t10.flac
     6:02.326     208699628 B   cxx   --   ---xx   flac  0.5854  gd1981-10-10s2t01.flac
    12:44.433     440313164 B   cxx   --   ---xx   flac  0.5822  gd1981-10-10s2t02.flac
     7:28.612     258400670 B   cxx   --   ---xx   flac  0.5636  gd1981-10-10s2t03.flac
     7:04.070     244264298 B   cxx   --   ---xx   flac  0.5895  gd1981-10-10s2t04.flac
     7:46.326     268603640 B   cxx   --   ---xx   flac  0.5907  gd1981-10-10s2t05.flac
     5:59.753     207217760 B   cxx   --   ---xx   flac  0.5617  gd1981-10-10s2t06.flac
     9:05.068     313959002 B   cxx   --   ---xx   flac  0.5413  gd1981-10-10s2t07.flac
     7:12.053     248862590 B   cxx   --   ---xx   flac  0.5840  gd1981-10-10s2t08.flac
     5:19.897     184260800 B   cxx   --   ---xx   flac  0.5800  gd1981-10-10s2t09.flac
     9:38.127     333000920 B   cxx   --   ---xx   flac  0.5598  gd1981-10-10s2t10.flac
     4:22.203     151029170 B   cxx   --   ---xx   flac  0.5846  gd1981-10-10s2t11.flac
     5:41.770     196859822 B   cxx   --   ---xx   flac  0.5766  gd1981-10-10s2t12.flac
   173:41.572    6002826362 B                            0.5804  (22 files)

No errors occured.


Show Checksums
flac-md5
efbe13ce42da830ea48427a27b15daea *gd1981-10-10s1t01.flac
7a4729e4c45f6baf74555b451cbeb278 *gd1981-10-10s1t02.flac
4f5dd978b72a7abb33e3fc51abd636ec *gd1981-10-10s1t03.flac
c8bd7089269d0fbec9061b0d0f7917fd *gd1981-10-10s1t04.flac
581d7bed43cfcaea28793f78a95d7528 *gd1981-10-10s1t05.flac
4786837c5e1a9fbc7f56f1cd70b53cc7 *gd1981-10-10s1t06.flac
2b9b24c18194fddc522e9da139232ee8 *gd1981-10-10s1t07.flac
2d1c2888f2ff13b2f111f59779c815b0 *gd1981-10-10s1t08.flac
bbbe81c3bbbf33535c9340d815bd60ff *gd1981-10-10s1t09.flac
6e44e02c98aafa85eedb0cb14f49c517 *gd1981-10-10s1t10.flac
1a17a1bffbc842d96f53cb809a89cdb5 *gd1981-10-10s2t01.flac
89d6f88ed0bd13a1f658e06b6ec39ad9 *gd1981-10-10s2t02.flac
fc049c0f02470561fc7ef70b1cd31055 *gd1981-10-10s2t03.flac
42206222f3c1c22ed890383655ca46ec *gd1981-10-10s2t04.flac
467cd60cf9b70b762b6dcfcbfb208338 *gd1981-10-10s2t05.flac
3313cdb964251e1aef9ceef26f72c055 *gd1981-10-10s2t06.flac
39c2233e7168f84e611da2eaf73d19c2 *gd1981-10-10s2t07.flac
6b4d274567cbfa5aa4894f293ba3b5a4 *gd1981-10-10s2t08.flac
35a098d203caeb00c244d77354d9af9b *gd1981-10-10s2t09.flac
1d85c5bcd6d805e1577358b7579c8be7 *gd1981-10-10s2t10.flac
cb389c0653a8664f9a492e7fd03155e1 *gd1981-10-10s2t11.flac
9c599ed6aa4c9f46461877c8a062e44c *gd1981-10-10s2t12.flac
ffp
gd1981-10-10s1t01.flac:5b8d38fbddff46cec192546711a1da3f
gd1981-10-10s1t02.flac:850ab3911fd961ad74883543c7254f99
gd1981-10-10s1t03.flac:a2b0f73141daefb7ca8a08766f972652
gd1981-10-10s1t04.flac:7ae744d1842dc00df32f9f6d1cf5fa0f
gd1981-10-10s1t05.flac:c80d7d2b00b10df8cdc7ac24319c5628
gd1981-10-10s1t06.flac:2c3b1571b44ee87581324107eadfe865
gd1981-10-10s1t07.flac:01d52bb2f8c159dfab063018d3ccf089
gd1981-10-10s1t08.flac:c96a47cfa5ddca05156aa97d3b278a83
gd1981-10-10s1t09.flac:bc5097c6b2833b15b37bfde0a2f22e3f
gd1981-10-10s1t10.flac:7d330c874d5bffc40a5a126c9f8a6cf7
gd1981-10-10s2t01.flac:a1f1196b5899b11c0acf763f74124ce0
gd1981-10-10s2t02.flac:c56f1ef67904977f15e3e67a656ff4b9
gd1981-10-10s2t03.flac:f4a7530320b7a67573a342b769b3f4eb
gd1981-10-10s2t04.flac:f6f6edd0f62e73683e6573ce8a1797e4
gd1981-10-10s2t05.flac:eb1b62d780b28e9ef2f64c6326b1349b
gd1981-10-10s2t06.flac:7489fe1bfa5d3ba4dd90236882d01e8e
gd1981-10-10s2t07.flac:814936707f4e68ed46b82d719b3723eb
gd1981-10-10s2t08.flac:ff8f38bbf5f4607cc831b502eec613d2
gd1981-10-10s2t09.flac:1182a4b0a6f6724768ed4646d91139ec
gd1981-10-10s2t10.flac:f067f2b40f6d4ce15929f4a29863b6ca
gd1981-10-10s2t11.flac:6d4eca38ea344876a49f024c07b68efc
gd1981-10-10s2t12.flac:000f971f624950b0c2c4ad01ca6f6138

Comments
Add Comment
Other Sources (comments)
Recording by Bernd... (0) SBD>?>C>C>WAV>SHN; Seeded... (0)
Date User Comment