Browse Collections Artists Sources   Search Dates

Add Show    List Management    Help


Grateful Dead 02/27/81
Uptown Theater, Chicago, IL
Comments Add Comment    Source Collectors    Add to Collection    Add to Want List    History
Source # 127511 Other Sources
Entered by Matt Vernon
Checksums ffp , flac-md5
Disc Counts 0 / 0
Media Size Compressed: 3.38 GB (3624015506 bytes)
Date Circulated
Date Added
03/30/2014
03/30/2014
Source Summary flac24; Recorded 1st row balcony Sony TCD-5M> Beyer M-160; MAC>Sony TCKA3ES>USBPre-2 
  Archive
Source Information - Download Text | Download Zip
Grateful Dead
Uptown Theater, Chicago, IL
1981-02-27

24bit/96kHz file-set

s1t01 Alabama Getaway
s1t02 Promised Land
s1t03 Friend of the Devil
s1t04 Cassidy
s1t05 Loser
s1t06 C.C. Rider
s1t07 It Must Have Been the Roses
s1t08 Minglewood Blues


s2t01 Scarlet Begonias
s2t02 Fire on the Mountain
s2t03 Estimated Prophet
s2t04 Eyes of the World
s2t05 Drums
s2t06 Space
s2t07 Not fade Away
s2t08 Wharf Rat
s2t09 Sugar Magnolia
s2t10 Don't Ease Me In

Recorded 1st row balcony Sony TCD-5M> Beyer M-160
MAC>Sony TCKA3ES>USBPre-2

Create checksum file log saved to file.
   length     expanded size    cdr  WAVE problems  fmt   ratio  filename
    6:20.131     218955590 B   cxx   --   ---xx   flac  0.6539  gd1981-02-27s1t01.flac
    4:00.916     138767864 B   cxx   --   ---xx   flac  0.6773  gd1981-02-27s1t02.flac
   11:22.144     392914976 B   cxx   --   ---xx   flac  0.6437  gd1981-02-27s1t03.flac
    6:43.361     232336004 B   cxx   --   ---xx   flac  0.6585  gd1981-02-27s1t04.flac
    9:18.310     321586706 B   cxx   --   ---xx   flac  0.6517  gd1981-02-27s1t05.flac
    8:05.067     279398738 B   cxx   --   ---xx   flac  0.6618  gd1981-02-27s1t06.flac
    5:56.720     205470974 B   cxx   --   ---xx   flac  0.6424  gd1981-02-27s1t07.flac
    7:04.177     244325738 B   cxx   --   ---xx   flac  0.6739  gd1981-02-27s1t08.flac
   13:27.290     464999108 B   cxx   --   ---xx   flac  0.6505  gd1981-02-27s2t01.flac
   11:56.242     412555400 B   cxx   --   ---xx   flac  0.6548  gd1981-02-27s2t02.flac
   11:24.344     394181996 B   cxx   --   ---xx   flac  0.6651  gd1981-02-27s2t03.flac
    9:54.693     342543260 B   cxx   --   ---xx   flac  0.6645  gd1981-02-27s2t04.flac
   13:52.509     479525054 B   cxx   --   ---xx   flac  0.6511  gd1981-02-27s2t05.flac
    6:28.149     223573850 B   cxx   --   ---xx   flac  0.6655  gd1981-02-27s2t06.flac
    9:20.937     323099504 B   cxx   --   ---xx   flac  0.6703  gd1981-02-27s2t07.flac
   11:06.507     383908016 B   cxx   --   ---xx   flac  0.6734  gd1981-02-27s2t08.flac
    8:36.409     297451850 B   cxx   --   ---xx   flac  0.6859  gd1981-02-27s2t09.flac
    3:43.811     128914970 B   cxx   --   ---xx   flac  0.6764  gd1981-02-27s2t10.flac
  158:41.717    5484509598 B                            0.6608  (18 files)

Show Checksums
ffp
gd1981-02-27s1t01.flac:3b42af4046c8b719d3bc1ee4419008b8
gd1981-02-27s1t02.flac:7e56fb8ac0a01b7bfc50b089bda37314
gd1981-02-27s1t03.flac:d01ed065a9f021c0beab8dc4eaa173cb
gd1981-02-27s1t04.flac:4f09511231d00d6e6c4ddbfdfc1d9643
gd1981-02-27s1t05.flac:683d59d4c8132f0622b72a5ee75eff80
gd1981-02-27s1t06.flac:1e6c29a873f04795a60ae5d130144191
gd1981-02-27s1t07.flac:60a53255e61aaa09e85135839fc55d10
gd1981-02-27s1t08.flac:ae47f917e70a77213c3c252a3af5d8d9
gd1981-02-27s2t01.flac:56bf477f5e826a8451d3d3bc3067040c
gd1981-02-27s2t02.flac:49360dc30fb1f87d0f6926fc1903d8a6
gd1981-02-27s2t03.flac:005124c99000290789bd99be1782a95c
gd1981-02-27s2t04.flac:498268e1e8d8d89f9baa3939bd24a7e5
gd1981-02-27s2t05.flac:2d86dce60bbed4c32f494aedbe659035
gd1981-02-27s2t06.flac:fb127b486817773e187084fdb9b67564
gd1981-02-27s2t07.flac:818c8f01ffd74e1620120aff13392757
gd1981-02-27s2t08.flac:823ba58f7ac515a40e88ff27e153687c
gd1981-02-27s2t09.flac:94ecfb81b761f6115b062835ab77b0db
gd1981-02-27s2t10.flac:0aefed2a3ad25cb246d0d545eff8914b
flac-md5
9b78f95a78f26b14b7ff082bf28a8da5 *gd1981-02-27s1t01.flac
c0b155f7575479473fe279d08d246bbb *gd1981-02-27s1t02.flac
b05120e1d9d1977142b812330c192ed4 *gd1981-02-27s1t03.flac
764390c87851392d439feaf18fcf805e *gd1981-02-27s1t04.flac
ee2a7a7e4c4f02762e03fee15e2d6cf2 *gd1981-02-27s1t05.flac
a110a0668e8a7803268e9ddfa416f4f9 *gd1981-02-27s1t06.flac
3e12d5be09ff48c0a52aa20d0884fa42 *gd1981-02-27s1t07.flac
47f2ab3aa5846f9a2ef4997b1dca72d3 *gd1981-02-27s1t08.flac
b89477bb3011d2cb25eae68971eeb382 *gd1981-02-27s2t01.flac
59a7ab36166c1d0244fa18c58e08090a *gd1981-02-27s2t02.flac
151b154851cf59ed51426bb1a04a94bc *gd1981-02-27s2t03.flac
3db9653bd001fecb47cf27c0af2302be *gd1981-02-27s2t04.flac
110cedfd63b7d4853fc2cdb8af900d7d *gd1981-02-27s2t05.flac
092f667da5b9e7d86f0c3dc9bbc3a36b *gd1981-02-27s2t06.flac
363a412c49225964b37ef873c6115662 *gd1981-02-27s2t07.flac
de9b6b6a91067b19a761b84fe31b10fd *gd1981-02-27s2t08.flac
c068657e293d43ca4efe77329ad96035 *gd1981-02-27s2t09.flac
43c83d8092987a506eaf53e9b74e8be5 *gd1981-02-27s2t10.flac

Comments
Add Comment
Other Sources (comments)
SBD > Cassette master >... (1) Taped by Barry Glassberg:... (0) flac16; SBD/AUD... (1) flac16; Recorded By... (0) flac16; Matrix by... (0) flac16; Source Info:... (0) flac24; Source Info:... (0)
Date User Comment