Browse Collections Artists Sources   Search Dates

Add Show    List Management    Help


Grateful Dead 10/27/79
Cape Cod Coliseum, South Yarmouth, MA
Comments Add Comment    Source Collectors    Add to Collection    Add to Want List    History
Source # 127550 Other Sources
Entered by Matt Vernon
Checksums ffp , flac-md5
Disc Counts 0 / 0
Media Size Compressed: 3.59 MB (3764387 bytes)
Date Circulated
Date Added
04/04/2014
04/05/2014
Source Summary flac24; Recorded 14th row left center; Nakamichi 550>AKG D222e; Transfer MAC>Nakamichi 1000II>USBPre2; Recorded and transfered by Richie Stankiewicz 
  Archive
Source Information - Download Text | Download Zip
Grateful Dead
Cape Cod Coliseum
South Yarmouth, MA
1979-10-27

24bit/96kHz file-set

s1t01 crowd
s1t02 Jack Straw
s1t03 Candyman
s1t04 Me & My Uncle
s1t05 Big River
s1t06 Brown Eyed Women
s1t07 Easy to Love You
s1t08 Minglewood
s1t09 Stagger Lee
s1t10 Lost Sailor
s1t11 St. of Circumstance
s1t12 Deal



s2t01 crowd
s2t02 Dancin' in the Streets
s2t03 Franklin's Tower
s2t04 He's Gone
s2t05 The Other One
s2t06 Drums(with Phil to start)
s2t07 Not Fade Away
s2t08 Black Peter
s2t09 Around & Around
s2t10 One More Saturday Night


Recorded 14th row left center
Nakamichi 550>AKG D222e
Transfer MAC>Nakamichi 1000II>USBPre2
Recorded and transfered by Richie Stankiewicz
Patches during the He's Gone jam and drums>NFA
by Tim Friend and Andrew F's recording,Thanks as always!

Create checksum file log saved to file.
    length     expanded size    cdr  WAVE problems  fmt   ratio  filename
     0:38.795      22345898 B   cxx   --   ---xx   flac  0.6195  gd1979-10-27s1t01.flac
     7:27.732     257893616 B   cxx   --   ---xx   flac  0.6431  gd1979-10-27s1t02.flac
     7:25.396     256548350 B   cxx   --   ---xx   flac  0.6578  gd1979-10-27s1t03.flac
     3:14.215     111868004 B   cxx   --   ---xx   flac  0.6662  gd1979-10-27s1t04.flac
     7:18.370     252501230 B   cxx   --   ---xx   flac  0.6670  gd1979-10-27s1t05.flac
     5:43.892     198081668 B   cxx   --   ---xx   flac  0.6665  gd1979-10-27s1t06.flac
     4:13.558     146049212 B   cxx   --   ---xx   flac  0.6673  gd1979-10-27s1t07.flac
     7:33.195     261040562 B   cxx   --   ---xx   flac  0.6828  gd1979-10-27s1t08.flac
     9:26.103     326075588 B   cxx   --   ---xx   flac  0.6686  gd1979-10-27s1t09.flac
     6:45.375     233496272 B   cxx   --   ---xx   flac  0.6685  gd1979-10-27s1t10.flac
     5:34.446     192640844 B   cxx   --   ---xx   flac  0.6716  gd1979-10-27s1t11.flac
     5:46.526     199598762 B   cxx   --   ---xx   flac  0.6733  gd1979-10-27s1t12.flac
     1:28.586      51025676 B   cxx   --   ---xx   flac  0.4924  gd1979-10-27s2t01.flac
    14:07.545     488185892 B   cxx   --   ---xx   flac  0.6687  gd1979-10-27s2t02.flac
    17:35.322     607865444 B   cxx   --   ---xx   flac  0.6634  gd1979-10-27s2t03.flac
    16:42.850     577641554 B   cxx   --   ---xx   flac  0.6524  gd1979-10-27s2t04.flac
     9:44.276     336543062 B   cxx   --   ---xx   flac  0.6566  gd1979-10-27s2t05.flac
     6:37.315     228853646 B   cxx   --   ---xx   flac  0.5572  gd1979-10-27s2t06.flac
     9:23.881     324795500 B   cxx   --   ---xx   flac  0.6495  gd1979-10-27s2t07.flac
     9:40.735     334503392 B   cxx   --   ---xx   flac  0.6484  gd1979-10-27s2t08.flac
     7:44.189     267373100 B   cxx   --   ---xx   flac  0.6604  gd1979-10-27s2t09.flac
     5:49.165     201119102 B   cxx   --   ---xx   flac  0.6651  gd1979-10-27s2t10.flac
   170:01.468    5876046374 B                            0.6561  (22 files)


Show Checksums
ffp
gd1979-10-27s1t01.flac:3e1c5ddfed636e286603b8c6b8dff531
gd1979-10-27s1t02.flac:b33aa5b07b626acfbe03e79571226ecf
gd1979-10-27s1t03.flac:e5f8eadb1128c6d3008a99367bc1a033
gd1979-10-27s1t04.flac:55be7d3fdb322c1179c5c19c50b929dd
gd1979-10-27s1t05.flac:830938cfa88e85b6c2560cd2195377d2
gd1979-10-27s1t06.flac:5ec455ba64b0f26abdb7d4d5e242848c
gd1979-10-27s1t07.flac:4bd653bccf766c0673fbf6599107dc1a
gd1979-10-27s1t08.flac:c39d4eb80cf6d33fb0c04b5b076b8c4d
gd1979-10-27s1t09.flac:e1e00888a1fc9313d2600e7eccf9b500
gd1979-10-27s1t10.flac:bd3324838f50f07424a33dac84618665
gd1979-10-27s1t11.flac:3c91ff98e5f4dd4913430675e9130971
gd1979-10-27s1t12.flac:858b806fc233f539bc0aeda006f8cbd8
gd1979-10-27s2t01.flac:416d3b90f2fc3d1e0dcfdbc99a599ea3
gd1979-10-27s2t02.flac:18432d25810a1c39bb126d54eca9097c
gd1979-10-27s2t03.flac:09df4a18bf1e36470dab81885fda4301
gd1979-10-27s2t04.flac:f62ef886aa1ea84b3ba20cc93ad3b290
gd1979-10-27s2t05.flac:7bda58e63cd9466c6145c6ceca78b1d9
gd1979-10-27s2t06.flac:40815e9efccbd677aeb264fae553f7c9
gd1979-10-27s2t07.flac:a06fa7a85eebdeb045b53cd4d7764c52
gd1979-10-27s2t08.flac:ff124077b584067ffed19db8098e2b7f
gd1979-10-27s2t09.flac:38d1c5114b2485d950f31472ce999098
gd1979-10-27s2t10.flac:9222354535a4521e805ce8fcec4818b8
flac-md5
5b6907475e35df2110ea259d7944fcbc *gd1979-10-27s1t01.flac
fd31574a89ece676e37b554f0fb90470 *gd1979-10-27s1t02.flac
d98c08306b974d7b06aa388b6ed972b1 *gd1979-10-27s1t03.flac
c0932bf1f132a7ae1dfde2b6e578a68c *gd1979-10-27s1t04.flac
2be0dcbd5065ef566bb9761b284577e8 *gd1979-10-27s1t05.flac
55826974c7ac95d19c22d57e4cbf91c1 *gd1979-10-27s1t06.flac
6eaefe72b8d9aece6d473893c14c894e *gd1979-10-27s1t07.flac
25f18c2ea7713aeb5b7ec7f16c45d012 *gd1979-10-27s1t08.flac
396f53269f96c62152ca5f58837f29ce *gd1979-10-27s1t09.flac
b935964f808118aa3d7221cc24b80e2f *gd1979-10-27s1t10.flac
1d7a2c754265e0f40326371e8fbf8986 *gd1979-10-27s1t11.flac
4bd5b180bf71af31392c19c15332aa4d *gd1979-10-27s1t12.flac
301511aa5ae107f9b9de35645377c2f7 *gd1979-10-27s2t01.flac
239e8a05e7062261decc7ae5a63b957b *gd1979-10-27s2t02.flac
e434257ea82b693e657441e318e85917 *gd1979-10-27s2t03.flac
6ca7bdae3ba5030f5621f9369e89ce33 *gd1979-10-27s2t04.flac
2f7007c98b97874027822861a4abc78e *gd1979-10-27s2t05.flac
889266e1bc79004760dd7dd7060cf19d *gd1979-10-27s2t06.flac
21e8a46bc376e273afb72c71276bc170 *gd1979-10-27s2t07.flac
0d92ba5c9872cea0bcc8b46c9b382999 *gd1979-10-27s2t08.flac
a9a924f5b1a39c5eba37bfd1c334926e *gd1979-10-27s2t09.flac
6dac0e50e118a0070d3dae7b3c74ba99 *gd1979-10-27s2t10.flac

Comments
Add Comment
Other Sources (comments)
SBD> [?]> DAT (D. DiProsa)>... (10) Master Soundboard Cassette... (9) Recording by Steve Rolfe:... (0) Set 2 Only: zero gen source... (0) Repatch of (1) flac16; Recording... (0) flac16; Recording... (0) flac16; SBD and... (0) flac16; Recording... (0) flac16; Recording... (0) flac16; Matrix by... (0) flac16; AUD: 3x... (0) flac16; Sennheiser... (0)
Date User Comment