Browse Collections Artists Sources   Search Dates

Add Show    List Management    Help


Phil Lesh & Friends 09/26/03
Warfield Theater, San Francisco, CA
Comments Add Comment    Source Collectors    Add to Collection    Add to Want List    History
Source # 128261 Other Sources
Entered by Matt Vernon
Checksums ffp , flac-md5
Disc Counts 0 / 0
Media Size
Date Circulated
Date Added

04/20/2014
Source Summary Source: AKG 522>V3>DAT 1648 MS Location: FOB ROC OTS Recorded: Picklemic Transfer: DAT>R44> Audacity 2.0.1> Xact 2.24 > FLAC Transferred: Jason Picklemic Loomis picklemic2 @gmail 
  Archive
Source Information - Download Text | Download Zip
Phil Lesh and Friends
September 26th, 2003
Warfield Theatre
San Francisco, CA

Source: AKG 522>V3>DAT 1648 MS
Location: FOB ROC OTS
Recorded: Picklemic
Transfer: DAT>R44> Audacity 2.0.1> Xact 2.24 > FLAC
Transferred: Jason Picklemic Loomis  picklemic2 @gmail

Set 1:
01. crowd/tuning
02. Jam>
03. Casey Jones>Jam>
04. Welcome to the Underground>Jam>
05. Shakedown Street>
06. Jam>
07. Stagger Lee
08. Beautifully Broken >
09. Doin' That Rag
10. Night of 1000 Stars

Set 2:
01. crowd/tuning
02. Lovelight>
03. Uncle John's Band>Jam>
04. St. Stephen>
05. Again & Again>
06. Millenium Jam>
07. The Eleven
08. Low Spark>
09. Viola Lee Blues
10. Golden Road
11. donor rap/band intros
E)
12. Celebration

    length     expanded size    cdr  WAVE problems  fmt   ratio  filename
     1:02.158      11934404 B   cxx   --   ---xx   flac  0.4653  PLQ2003-09-26s1t01.flac
     4:23.144      50523780 B   cxx   --   ---xx   flac  0.5877  PLQ2003-09-26s1t02.flac
    14:03.324     161918164 B   cxx   --   ---xx   flac  0.6152  PLQ2003-09-26s1t03.flac
    10:53.782     125526260 B   cxx   --   ---xx   flac  0.6293  PLQ2003-09-26s1t04.flac
    11:24.403     131405428 B   cxx   --   ---xx   flac  0.6498  PLQ2003-09-26s1t05.flac
     5:12.664      60031540 B   cxx   --   ---xx   flac  0.6220  PLQ2003-09-26s1t06.flac
     6:14.739      71949852 B   cxx   --   ---xx   flac  0.6109  PLQ2003-09-26s1t07.flac
     7:23.645      85179976 B   cxx   --   ---xx   flac  0.6139  PLQ2003-09-26s1t08.flac
     7:18.896      84268108 B   cxx   --   ---xx   flac  0.6305  PLQ2003-09-26s1t09.flac
     8:41.260     100081868 B   cxx   --   ---xx   flac  0.6528  PLQ2003-09-26s1t10.flac
     2:15.077      25934772 B   cxx   --   ---xx   flac  0.3440  PLQ2003-09-26s2t01.flac
    21:00.608     242036768 B   cxx   --   ---xx   flac  0.4540  PLQ2003-09-26s2t02.flac
    13:31.756     155857184 B   cxx   --   ---xx   flac  0.4745  PLQ2003-09-26s2t03.flac
     9:17.718     107081860 B   cxx   --   ---xx   flac  0.4809  PLQ2003-09-26s2t04.flac
     5:25.140      62426860 B   cxx   --   ---xx   flac  0.4449  PLQ2003-09-26s2t05.flac
     4:09.719      47946120 B   cxx   --   ---xx   flac  0.4818  PLQ2003-09-26s2t06.flac
     9:53.943     114037176 B   cxx   --   ---xx   flac  0.4530  PLQ2003-09-26s2t07.flac
    10:02.500     115680124 B   cxx   --   ---xx   flac  0.4521  PLQ2003-09-26s2t08.flac
     8:15.895      95211956 B   cxx   --   ---xx   flac  0.4763  PLQ2003-09-26s2t09.flac
     4:31.097      52050628 B   cxx   --   ---xx   flac  0.4938  PLQ2003-09-26s2t10.flac
     2:51.208      32872020 B   cxx   --   ---xx   flac  0.4050  PLQ2003-09-26s2t11.flac
     5:59.685      69059496 B   cxx   --   ---xx   flac  0.4781  PLQ2003-09-26s2t12.flac
   173:52.361    2003014344 B                            0.5331  (22 files)

Show Checksums
ffp
PLQ2003-09-26s1t01.flac:9b3a8b18ec91431cc031b4485cc2b23f
PLQ2003-09-26s1t02.flac:7aa49695b0a11f306a44cfbf4b3b420f
PLQ2003-09-26s1t03.flac:629fe421860d564b96a6b3af598d7998
PLQ2003-09-26s1t04.flac:35b842c1cc9a5cd18ceeb0735552a83e
PLQ2003-09-26s1t05.flac:a29076f7253dcbcefbb50a6c2ead88c5
PLQ2003-09-26s1t06.flac:6209432a29d10aa0bf8f39cebf09768a
PLQ2003-09-26s1t07.flac:1358c17e884fe51eec53acd67591b1f3
PLQ2003-09-26s1t08.flac:fb07641e8db6463e5346414952522d26
PLQ2003-09-26s1t09.flac:5aac3ec57e5f26e73b61510263de4d4a
PLQ2003-09-26s1t10.flac:7072e22b421cb48d41fdfd77d0e314f4
PLQ2003-09-26s2t01.flac:e5a8780015bd2acfe0bea2c7f204c66e
PLQ2003-09-26s2t02.flac:7693a527d98e59f75a0fc25742bc5be2
PLQ2003-09-26s2t03.flac:994d727974f29bbf69a01eac7d1a1534
PLQ2003-09-26s2t04.flac:7035429c34157f9794646fc8e22b1868
PLQ2003-09-26s2t05.flac:fbdb7c52bf76d52d3246e0be856ff048
PLQ2003-09-26s2t06.flac:8586c41a399aff5e68d8aa5e6f2e90c4
PLQ2003-09-26s2t07.flac:f6195b6c7afb18a2ffb416ab94be9b32
PLQ2003-09-26s2t08.flac:0a1af6090a712dcfd5af99c17b307214
PLQ2003-09-26s2t09.flac:6d9c9e0c45ce3be7db3a837ca822b09e
PLQ2003-09-26s2t10.flac:57ec0da9b3047564b48b8c19ed2ead57
PLQ2003-09-26s2t11.flac:a2959af0bbbc713df8778e8eb2e3b0da
PLQ2003-09-26s2t12.flac:4fc46f2471d306ee879d778dc6c87526
flac-md5
22ea58f49e1ee07a50342ac4ba4ac478 *PLQ2003-09-26s1t01.flac
105d2b9ded1dd26fa0e7d591854c0685 *PLQ2003-09-26s1t02.flac
3f5396653d8c812d746400ff76003718 *PLQ2003-09-26s1t03.flac
412ec6c34efdd3abd5d32e31d6993b59 *PLQ2003-09-26s1t04.flac
b8e7e4fa30a0f8a7765962657056cf0b *PLQ2003-09-26s1t05.flac
58835757c20b1be4643320e4b4e829d5 *PLQ2003-09-26s1t06.flac
7397d9da08dd89507b951b079c8493a2 *PLQ2003-09-26s1t07.flac
ee66aa628a53e3b456366b99688ee1b0 *PLQ2003-09-26s1t08.flac
2c8d3ddeedaee99769179f84bdd1572b *PLQ2003-09-26s1t09.flac
f2674fde6c02e22b5f32feaec45feb75 *PLQ2003-09-26s1t10.flac
c80f736e0d018b53f1d40c4768e3b152 *PLQ2003-09-26s2t01.flac
894812f2d646394252f1775266dbc0f6 *PLQ2003-09-26s2t02.flac
431f48e17a4319f8c09391763100be9d *PLQ2003-09-26s2t03.flac
97764b7457959bc4e945bee6c35015ca *PLQ2003-09-26s2t04.flac
956cf099a02a3546063fd6d300cf2629 *PLQ2003-09-26s2t05.flac
e5469372b6ba73be0aab1d3e2251aeac *PLQ2003-09-26s2t06.flac
e0cddbaafd79f4fa55efe7be8773c147 *PLQ2003-09-26s2t07.flac
36e1841234124834abfa064615d74cc7 *PLQ2003-09-26s2t08.flac
48478f9cfb741967a014a8d742f911bf *PLQ2003-09-26s2t09.flac
494a44a5911a9cce06e0992e8f149114 *PLQ2003-09-26s2t10.flac
92a40c5018da582b30dbdd4e31fef4b9 *PLQ2003-09-26s2t11.flac
67d89baa8a59314167967077a24b9f5e *PLQ2003-09-26s2t12.flac

Comments
Add Comment
Other Sources (comments)
Source: Neumann U89i... (1) Official Free Soundboard... (0) Bertha Remaster of the... (0)
Date User Comment