Browse Collections Artists Sources   Search Dates

Add Show    List Management    Help


Grateful Dead 03/05/81
Stanley Theater, Pittsburgh, PA
Comments Add Comment    Source Collectors    Add to Collection    Add to Want List    History
Source # 128300 Other Sources
Entered by Matt Vernon
Checksums orig-ffp , orig-md5 , flac-md5 , ffp
Disc Counts 0 / 0
Media Size Compressed: 3.48 GB (3736322258 bytes)
Uncompressed: 5.44 GB (5842568034 bytes)
Date Circulated
Date Added
04/23/2014
04/23/2014
Source Summary flac24; Recording by Jim Wise: Master Audience Cassette; 2 Sennheiser 421s > Sony D-5 Center Loge; Transfer and FLAC encoding by David Minches: April 2014; Dolby B decoded Master played back on Nakamichi Dragon > Korg MR-1000(DSF [1-bit 5.6448 MHz Stereo]) Korg AudioGate > WAV [24/96] > Adobe Audition 3.0 > FLAC encoding 
  Archive
Source Information - Download Text | Download Zip
Grateful Dead
March 5, 1981
Stanley Theater
Pittsburgh, PA

Recording by Jim Wise:
Master Audience Cassette; 2 Sennheiser 421s > Sony D-5 Center Loge

Transfer and FLAC encoding by David Minches: April 2014
Dolby B decoded Master played back on Nakamichi Dragon >
Korg MR-1000(DSF [1-bit 5.6448 MHz Stereo]) Korg AudioGate > WAV [24/96] >
Adobe Audition 3.0 > FLAC encoding
_____________________________________________________________________________________

--Set 1--
s1t01 - Tuning
s1t02 - Alabama Getaway ->
s1t03 - Greatest Story
s1t04 - Friend of the Devil
s1t05 - C. C. Rider
s1t06 - Althea
s1t07 - Mama Tried ->
s1t08 - Mexicali Blues
s1t09 - To Lay Me Down
s1t10 - New Minglewood Blues
s1t11 - Tennessee Jed
s1t12 - Music Never Stopped

--Set 2--
s2t01 - Jam ->
s2t02 - Passenger
s2t03 - Scarlet Begonias ->
s2t04 - Fire On The Mountain
s2t05 - Playing In The Band ->
s2t06 - Drums ->
s2t07 - Space ->
s2t08 - Not Fade Away ->
s2t09 - Wharf Rat ->
s2t10 - Around and Around ->
s2t11 - Johnny B. Goode

--Encore--
s2t12 - U.S. Blues
_____________________________________________________________________________________

Tagging notes:
Show information is embedded within the headerof each flac file.
It will display on any player capable of directly playing flac files.
If converted to wav during processing, all tags will be stripped,
however audio data will remain unaffected.
If you must transcode to a lossy format, do so directly Flac > Lossy.
Use st5 to validate audio integrity.
Md5 values will change if tagging is altered.
B. Proctor 4/23/2014
_____________________________________________________________________________________

length     expanded size    cdr  WAVE problems  fmt   ratio  filename
     1:09.797      40202924 B   cxx   --   ---xx   flac  0.6127  s01t01 - Tuning.flac
     5:19.067     183782870 B   cxx   --   ---xx   flac  0.6457  s01t02 - Alabama Getaway.flac
     4:19.902     149703860 B   cxx   --   ---xx   flac  0.6469  s01t03 - Greatest Story Ever Told.flac
     9:26.310     326194640 B   cxx   --   ---xx   flac  0.6324  s01t04 - Friend of the Devil.flac
     7:44.952     267812132 B   cxx   --   ---xx   flac  0.6404  s01t05 - C. C. Rider.flac
     8:08.795     281545976 B   cxx   --   ---xx   flac  0.6320  s01t06 - Althea.flac
     2:31.582      87311060 B   cxx   --   ---xx   flac  0.6420  s01t07 - Mama Tried.flac
     5:24.955     187174280 B   cxx   --   ---xx   flac  0.6395  s01t08 - Mexicali Blues.flac
     9:45.966     337516550 B   cxx   --   ---xx   flac  0.6170  s01t09 - To Lay Me Down.flac
     7:56.168     274273004 B   cxx   --   ---xx   flac  0.6414  s01t10 - Minglewood Blues.flac
     8:50.728     305699132 B   cxx   --   ---xx   flac  0.6341  s01t11 - Tennessee Jed.flac
     8:10.011     282246242 B   cxx   --   ---xx   flac  0.6493  s01t12 - Music Never Stopped.flac
     7:07.914     246478664 B   cxx   --   ---xx   flac  0.6379  s02t01 - Jam.flac
     5:35.515     193256888 B   cxx   --   ---xx   flac  0.6539  s02t02 - Passenger.flac
    11:30.388     397663472 B   cxx   --   ---xx   flac  0.6438  s02t03 - Scarlet Begonias.flac
    11:03.817     382358390 B   cxx   --   ---xx   flac  0.6497  s02t04 - Fire On The Mountain.flac
    14:09.827     489500600 B   cxx   --   ---xx   flac  0.6328  s02t05 - Playing In The Band.flac
     3:59.309     137841908 B   cxx   --   ---xx   flac  0.6060  s02t06 - Drums.flac
     1:59.799      69004550 B   cxx   --   ---xx   flac  0.6202  s02t07 - Space.flac
    10:18.142     356050100 B   cxx   --   ---xx   flac  0.6470  s02t08 - Not Fade Away.flac
    10:38.512     367782986 B   cxx   --   ---xx   flac  0.6388  s02t09 - Wharf Rat.flac
     4:01.802     139278152 B   cxx   --   ---xx   flac  0.6485  s02t10 - Around and Around.flac
     4:33.988     157817006 B   cxx   --   ---xx   flac  0.6596  s02t11 - Johhny B. Goode.flac
     5:16.098     182072648 B   cxx   --   ---xx   flac  0.6588  s02t12 - U.S. Blues.flac
   169:03.345    5842568034 B                            0.6395  (24 files)





Show Checksums
orig-ffp
s01t01 - Tuning.flac:6df027a140cf5cddf556a39ad879eb50
s01t02 - Alabama Getaway.flac:62285e0463fb5ab033cdc109d0831f4e
s01t03 - Greatest Story Ever Told.flac:2d2a3796735afe015497d893630f04fc
s01t04 - Friend of the Devil.flac:4eaf6dba6b494899c4cd938b280014c2
s01t05 - C. C. Rider.flac:fcd0b462004ee08062b6b193ab601cb3
s01t06 - Althea.flac:858b844ee50248bcfbb23ead18e9e624
s01t07 - Mama Tried.flac:69116f64d5c320a8918fd00932989f4d
s01t08 - Mexicali Blues.flac:7fc0fa7fc35e8fef2633c4da48e4055a
s01t09 - To Lay Me Down.flac:4b854e5a03f413aeef5d089ce83e6718
s01t10 - Minglewood Blues.flac:ffc8f38e21d1f37cc3e360cccdf4a2c2
s01t11 - Tennessee Jed.flac:0ae1ce612b7d36b4bb7eb0a615d0840f
s01t12 - Music Never Stopped.flac:f8f67829480f09c46f8de4ecd396b3a3
s02t01 - Jam.flac:6484985dd93e20fbdc078bc58497255b
s02t02 - Passenger.flac:da4683cc673adef5d3bd23b3ff86b62e
s02t03 - Scarlet Begonias.flac:623f52a0650a7b12ffc96c32c838a651
s02t04 - Fire On The Mountain.flac:49c645e6536fb8f3dc50c42b82c0b873
s02t05 - Playing In The Band.flac:ec1f4251d8a4b83601b86d5e622a3699
s02t06 - Drums.flac:a9f5c8d51c0456a204e2eee88c96bacf
s02t07 - Space.flac:5417b44a0918bed056d3a43a1472aa41
s02t08 - Not Fade Away.flac:7f65745842f6f42c446bcf57b6246520
s02t09 - Wharf Rat.flac:97f072989983cc296bf302d46c2df263
s02t10 - Around and Around.flac:6d12ba3be4b2bd8e11bd59e3dcd8bb53
s02t11 - Johhny B. Goode.flac:a9d590bacb666a78008c1b09e85a8f52
s02t12 - U.S. Blues.flac:9258fc41cf8fa89fa35e229dee802aa1
orig-md5
ee413e65ef6202e2413288aee8ac3e71 *s01t01 - Tuning.flac
31e66d820d31c1c5a203916d38d2352d *s01t02 - Alabama Getaway.flac
cd077ca27fcb936fdadff12d668ce94d *s01t03 - Greatest Story Ever Told.flac
83820c911d2a3f34c048b040f8f653cd *s01t04 - Friend of the Devil.flac
894e9dfdc166d025c4f2b3272cccd0ce *s01t05 - C. C. Rider.flac
cd15fe318cece93b5daa8c88152b438d *s01t06 - Althea.flac
e9a773469f1bed0cdd85e3fa0eaf1995 *s01t07 - Mama Tried.flac
ab9ef330c3aaf2accf23b72be94b7640 *s01t08 - Mexicali Blues.flac
454ef4007091ba91b4ade5b3486320fc *s01t09 - To Lay Me Down.flac
91b85fa114f254f65111a0a8a04811d2 *s01t10 - Minglewood Blues.flac
c05d2c0a8c2bfc96edccfd8b3b4ca77a *s01t11 - Tennessee Jed.flac
b5a21460690c073d720b7bbcfc24fc38 *s01t12 - Music Never Stopped.flac
feb6b1e3cc56bc6062077c4a7bf6e543 *s02t01 - Jam.flac
2f5706912e4682661da5ce1d1123da2a *s02t02 - Passenger.flac
59bbf152a27829c232eda55307d5a66d *s02t03 - Scarlet Begonias.flac
7f496f5b4df3815bde790016d69bf193 *s02t04 - Fire On The Mountain.flac
6e6a15bfe69c0537ef0393b93036c7de *s02t05 - Playing In The Band.flac
34780257b4b44671d4ba64bd23fcf831 *s02t06 - Drums.flac
9f8ef360081c3b46944fa4c1cc42166b *s02t07 - Space.flac
ebb17f1e72228c9fb3401076d7e9ccf1 *s02t08 - Not Fade Away.flac
b439f65a4b76e223c19b4bd87d6be037 *s02t09 - Wharf Rat.flac
487d26f0d7b6e9bc3b9281be51e6695b *s02t10 - Around and Around.flac
d270bb31bd938671ddc69e32d455a03c *s02t11 - Johhny B. Goode.flac
9140c6c8fdb10b054c8c99baa784edde *s02t12 - U.S. Blues.flac
flac-md5
ee413e65ef6202e2413288aee8ac3e71 *s01t01.flac
31e66d820d31c1c5a203916d38d2352d *s01t02.flac
cd077ca27fcb936fdadff12d668ce94d *s01t03.flac
83820c911d2a3f34c048b040f8f653cd *s01t04.flac
894e9dfdc166d025c4f2b3272cccd0ce *s01t05.flac
cd15fe318cece93b5daa8c88152b438d *s01t06.flac
e9a773469f1bed0cdd85e3fa0eaf1995 *s01t07.flac
ab9ef330c3aaf2accf23b72be94b7640 *s01t08.flac
454ef4007091ba91b4ade5b3486320fc *s01t09.flac
91b85fa114f254f65111a0a8a04811d2 *s01t10.flac
c05d2c0a8c2bfc96edccfd8b3b4ca77a *s01t11.flac
b5a21460690c073d720b7bbcfc24fc38 *s01t12.flac
feb6b1e3cc56bc6062077c4a7bf6e543 *s02t01.flac
2f5706912e4682661da5ce1d1123da2a *s02t02.flac
59bbf152a27829c232eda55307d5a66d *s02t03.flac
7f496f5b4df3815bde790016d69bf193 *s02t04.flac
6e6a15bfe69c0537ef0393b93036c7de *s02t05.flac
34780257b4b44671d4ba64bd23fcf831 *s02t06.flac
9f8ef360081c3b46944fa4c1cc42166b *s02t07.flac
ebb17f1e72228c9fb3401076d7e9ccf1 *s02t08.flac
b439f65a4b76e223c19b4bd87d6be037 *s02t09.flac
487d26f0d7b6e9bc3b9281be51e6695b *s02t10.flac
d270bb31bd938671ddc69e32d455a03c *s02t11.flac
9140c6c8fdb10b054c8c99baa784edde *s02t12.flac
ffp
s01t01.flac:6df027a140cf5cddf556a39ad879eb50
s01t02.flac:62285e0463fb5ab033cdc109d0831f4e
s01t03.flac:2d2a3796735afe015497d893630f04fc
s01t04.flac:4eaf6dba6b494899c4cd938b280014c2
s01t05.flac:fcd0b462004ee08062b6b193ab601cb3
s01t06.flac:858b844ee50248bcfbb23ead18e9e624
s01t07.flac:69116f64d5c320a8918fd00932989f4d
s01t08.flac:7fc0fa7fc35e8fef2633c4da48e4055a
s01t09.flac:4b854e5a03f413aeef5d089ce83e6718
s01t10.flac:ffc8f38e21d1f37cc3e360cccdf4a2c2
s01t11.flac:0ae1ce612b7d36b4bb7eb0a615d0840f
s01t12.flac:f8f67829480f09c46f8de4ecd396b3a3
s02t01.flac:6484985dd93e20fbdc078bc58497255b
s02t02.flac:da4683cc673adef5d3bd23b3ff86b62e
s02t03.flac:623f52a0650a7b12ffc96c32c838a651
s02t04.flac:49c645e6536fb8f3dc50c42b82c0b873
s02t05.flac:ec1f4251d8a4b83601b86d5e622a3699
s02t06.flac:a9f5c8d51c0456a204e2eee88c96bacf
s02t07.flac:5417b44a0918bed056d3a43a1472aa41
s02t08.flac:7f65745842f6f42c446bcf57b6246520
s02t09.flac:97f072989983cc296bf302d46c2df263
s02t10.flac:6d12ba3be4b2bd8e11bd59e3dcd8bb53
s02t11.flac:a9d590bacb666a78008c1b09e85a8f52
s02t12.flac:9258fc41cf8fa89fa35e229dee802aa1

Comments
Add Comment
Other Sources (comments)
Audience recording by Jim... (0) Set 2 soundboard, minus... (1) flac16; Recording by... (1) flac16; Recording by... (0) flac16; Recorded By... (0) flac16; AUD: Unknown... (0) flac16; Source Info:... (0) flac24; Source Info:... (0)
Date User Comment