Browse Collections Artists Sources   Search Dates

Add Show    List Management    Help


Phil Lesh & Friends 11/16/03
The Fillmore Auditorum, Denver, CO
Comments Add Comment    Source Collectors    Add to Collection    Add to Want List    History
Source # 128367 Other Sources
Entered by Matt Vernon
Checksums ffp , flac-md5
Disc Counts 0 / 0
Media Size
Date Circulated
Date Added

04/26/2014
Source Summary source: Schoeps MK4V>V3>DAT 1648 Recorded: Deadhead Ed FOB DFC Hat/Picklemic Transfer: DAT>R44> Audacity 2.0.1> Xact 2.24 > FLAC Transferred: Jason Picklemic Loomis [email protected] gmail FLAC tags modified & uploaded to LMA by taperjoe 
  Archive
Source Information - Download Text | Download Zip
Phil Lesh Quintet
Fillmore
Denver, CO
2003-11-16

source: Schoeps MK4V>V3>DAT 1648
Recorded: Deadhead Ed FOB DFC Hat/Picklemic
Transfer: DAT>R44> Audacity 2.0.1> Xact 2.24 > FLAC
Transferred: Jason Picklemic Loomis  [email protected] gmail
FLAC tags modified & uploaded to LMA by taperjoe

Set 1
01. crowd/tuning
02. She Said, She Said
03. Bird Song>
04. Night of 1000 Stars
05. China Cat Sunflower>
06. Not Fade Away>
07. Goin Down the Road Feeling Bad

Set 2
01. crowd/tuning
02. Jam>
03. Dear Mr. Fantasy>
04. Dark Star (V.1)>
05. Unbroken Chain>
06. Dark Star (v. 2)>
07. Strawberry Fields>
08. Help on the Way>
09. Slipknot!>
10. Franklin's Tower
11. Donor Rap
E)
12. And We Bid You Goodnight>
13. Stella Blue

    length     expanded size    cdr  WAVE problems  fmt   ratio  filename
     2:21.452      27158824 B   cxx   --   ---xx   flac  0.3826  PLQ2003-11-16s1t01.flac
     7:01.715      80969276 B   cxx   --   ---xx   flac  0.5731  PLQ2003-11-16s1t02.flac
    18:02.313     207804160 B   cxx   --   ---xx   flac  0.5618  PLQ2003-11-16s1t03.flac
     9:29.183     109283148 B   cxx   --   ---xx   flac  0.5825  PLQ2003-11-16s1t04.flac
     9:01.728     104011832 B   cxx   --   ---xx   flac  0.5927  PLQ2003-11-16s1t05.flac
     8:00.001      92160244 B   cxx   --   ---xx   flac  0.6147  PLQ2003-11-16s1t06.flac
     8:59.097     103506740 B   cxx   --   ---xx   flac  0.6012  PLQ2003-11-16s1t07.flac
     1:19.681      15298772 B   cxx   --   ---xx   flac  0.3689  PLQ2003-11-16s2t01.flac
     5:41.011      65474072 B   cxx   --   ---xx   flac  0.5736  PLQ2003-11-16s2t02.flac
    14:23.414     165775556 B   cxx   --   ---xx   flac  0.5664  PLQ2003-11-16s2t03.flac
     8:31.446      98197716 B   cxx   --   ---xx   flac  0.5705  PLQ2003-11-16s2t04.flac
    16:27.483     189596704 B   cxx   --   ---xx   flac  0.5843  PLQ2003-11-16s2t05.flac
     5:11.139      59738640 B   cxx   --   ---xx   flac  0.5446  PLQ2003-11-16s2t06.flac
     7:07.828      82143048 B   cxx   --   ---xx   flac  0.5636  PLQ2003-11-16s2t07.flac
     3:22.853      38947740 B   cxx   --   ---xx   flac  0.6196  PLQ2003-11-16s2t08.flac
     5:47.133      66649500 B   cxx   --   ---xx   flac  0.6162  PLQ2003-11-16s2t09.flac
     7:50.454      90327216 B   cxx   --   ---xx   flac  0.6305  PLQ2003-11-16s2t10.flac
     3:30.598      40434888 B   cxx   --   ---xx   flac  0.4945  PLQ2003-11-16s2t11.flac
     3:46.798      43545264 B   cxx   --   ---xx   flac  0.4281  PLQ2003-11-16s2t12.flac
    10:48.197     124453832 B   cxx   --   ---xx   flac  0.4792  PLQ2003-11-16s2t13.flac
   156:43.522    1805477172 B                            0.5654  (20 files)

Show Checksums
ffp
PLQ2003-11-16s1t01.flac:316cc660d8bda27da167d8d2408dad0f
PLQ2003-11-16s1t02.flac:5f4a46d7a1c6936ed1fb0630379a698a
PLQ2003-11-16s1t03.flac:1ca0310e71f394fadd286f460a8a3203
PLQ2003-11-16s1t04.flac:25abffbbcb090be33bfb57ee3e51c499
PLQ2003-11-16s1t05.flac:cd2c8a44a9ac2c520f981a484a47e05b
PLQ2003-11-16s1t06.flac:47198bdd363264e31b65ced8a828d222
PLQ2003-11-16s1t07.flac:04be945791d2d2c4e5f4eafed18e8db8
PLQ2003-11-16s2t01.flac:2c11eb43ffed6ad7174c29227f67c67d
PLQ2003-11-16s2t02.flac:1b9434dbedb373005edd0cd5c353d842
PLQ2003-11-16s2t03.flac:b04d6667ded9638b5542f777f811581b
PLQ2003-11-16s2t04.flac:d48d12e79b857febecaf09403f41169c
PLQ2003-11-16s2t05.flac:fd1e7b7f66369de454cc32cca86c3959
PLQ2003-11-16s2t06.flac:ccaf46333126eda611bf06f504072ed7
PLQ2003-11-16s2t07.flac:749b2932a9fbc89de7a4b31118d0eef0
PLQ2003-11-16s2t08.flac:5abacdbf0c03fd5f85ee51be0f1d7878
PLQ2003-11-16s2t09.flac:7cbed497604f2bec1780f6bda6195e65
PLQ2003-11-16s2t10.flac:ecea7e6f0063d5e7511f98447297b42e
PLQ2003-11-16s2t11.flac:0e68c9d7b4eee3010c8cb687099f9773
PLQ2003-11-16s2t12.flac:721c6fa9f090ac03b756a9a6f97df6f6
PLQ2003-11-16s2t13.flac:4e96f942870151577e18097bcd8e599d
flac-md5
c35bad54c8df90ba14eab672b321213a *PLQ2003-11-16s1t01.flac
c2ad8bb3d832bf0efb425711e6bfdef2 *PLQ2003-11-16s1t02.flac
3e184516fdef9897e8e67182cc644f64 *PLQ2003-11-16s1t03.flac
3c49def36657ea1c8995a3f101f2b85d *PLQ2003-11-16s1t04.flac
db55d933dc6e40f2b0e096ae724c80f4 *PLQ2003-11-16s1t05.flac
03d1546faae8e49bd1cbd45b882b87ba *PLQ2003-11-16s1t06.flac
52ae016f061d1a142dd61ccbea7dd094 *PLQ2003-11-16s1t07.flac
5d6231236122838df72e2cb03068e9e6 *PLQ2003-11-16s2t01.flac
6fad3a9122f6caabc3da42adb74483b7 *PLQ2003-11-16s2t02.flac
a259492bc66c0188afe149029074b880 *PLQ2003-11-16s2t03.flac
89b2db6bfd12a89e90df67a0dbb46b22 *PLQ2003-11-16s2t04.flac
046a9f95b76361b2e48e2c656ecc362b *PLQ2003-11-16s2t05.flac
06baa0277b4e70846e32855935789727 *PLQ2003-11-16s2t06.flac
c9169abfe98f3560513073ac62568382 *PLQ2003-11-16s2t07.flac
c7a61fa8e626f01b28b06139a562d395 *PLQ2003-11-16s2t08.flac
2c7ab88e41a1be40e644c9f9ba353675 *PLQ2003-11-16s2t09.flac
0cf9ab38440de425c2ca4224ccedca65 *PLQ2003-11-16s2t10.flac
7c5189103725c866735b307cb606235d *PLQ2003-11-16s2t11.flac
e038ee36474d87e00e47c5b468e2f3f2 *PLQ2003-11-16s2t12.flac
b0d43e7d385444483a9586629254dc16 *PLQ2003-11-16s2t13.flac

Comments
Add Comment
Other Sources (comments)
Source: adk 51-tl (ortf... (0) AKG480's... (0) Source : Audience Recording... (0) ource:... (0)
Date User Comment