Browse Collections Artists Sources   Search Dates

Add Show    List Management    Help


Phil Lesh & Friends 11/14/03
The Fillmore Auditorum, Denver, CO
Comments Add Comment    Source Collectors    Add to Collection    Add to Want List    History
Source # 128369 Other Sources
Entered by Matt Vernon
Checksums flac-md5 , ffp
Disc Counts 0 / 0
Media Size
Date Circulated
Date Added

04/26/2014
Source Summary source: Schoeps MK4V>V3>DAT 1648 Recorded: Deadhead Ed/Picklemic Transfer: DAT>R44> Audacity 2.0.1> Xact 2.24 > FLAC Transferred: Jason Picklemic Loomis [email protected] FLAC tags modified & uploaded to LMA by taperjoe 
  Archive
Source Information - Download Text | Download Zip
Phil Lesh Quintet
Fillmore
Denver, CO
2003-11-15

source: Schoeps MK41V>V3(50 Hz lo-cut)>DAT 1648
Recorded: Deadhead Ed FOB DFC Hat/Picklemic
Transfer: DAT>R44> Audacity 2.0.1> Xact 2.24 > FLAC
Transferred: Jason Picklemic Loomis  [email protected]
FLAC tags modified & uploaded to LMA by taperjoe

Set 1
01. Jam>
02. Scarlet Begonias>
03. Keep On Growing
04. Uncle John's Band>
05. All Along The Watchtower>
06. Hard To Handle*>
07. Passenger

Set 2
01. crowd/tuning
02. Shakedown Street>
03. Mason's Children>
04. The Real Thing
05. Loose Lucy>
06. Wharf Rat>
07. Viola Lee Blues>
08. Bertha>
09. I Know You Rider
10. Donor Rap
E)
11. Patchwork Quilt

* w/ Chris Robinson on vocals

    length     expanded size    cdr  WAVE problems  fmt   ratio  filename
     6:12.291      71479864 B   cxx   --   ---xx   flac  0.4970  PLQ2003-11-15s1t01.flac
    13:47.444     158869380 B   cxx   --   ---xx   flac  0.5694  PLQ2003-11-15s1t02.flac
     8:10.993      94270788 B   cxx   --   ---xx   flac  0.5986  PLQ2003-11-15s1t03.flac
    18:09.496     209183348 B   cxx   --   ---xx   flac  0.5895  PLQ2003-11-15s1t04.flac
    10:29.639     120890700 B   cxx   --   ---xx   flac  0.6052  PLQ2003-11-15s1t05.flac
     9:40.220     111402308 B   cxx   --   ---xx   flac  0.6021  PLQ2003-11-15s1t06.flac
     5:14.631      60409136 B   cxx   --   ---xx   flac  0.6352  PLQ2003-11-15s1t07.flac
     1:09.867      13414424 B   cxx   --   ---xx   flac  0.3458  PLQ2003-11-15s2t01.flac
    16:15.488     187293828 B   cxx   --   ---xx   flac  0.6284  PLQ2003-11-15s2t02.flac
     8:36.818      99229140 B   cxx   --   ---xx   flac  0.6198  PLQ2003-11-15s2t03.flac
     6:51.327      78974736 B   cxx   --   ---xx   flac  0.5474  PLQ2003-11-15s2t04.flac
     9:29.242     109294452 B   cxx   --   ---xx   flac  0.5798  PLQ2003-11-15s2t05.flac
    11:32.248     132911668 B   cxx   --   ---xx   flac  0.5802  PLQ2003-11-15s2t06.flac
     9:34.032     110214104 B   cxx   --   ---xx   flac  0.6281  PLQ2003-11-15s2t07.flac
     7:04.672      81537048 B   cxx   --   ---xx   flac  0.6222  PLQ2003-11-15s2t08.flac
     7:08.209      82216092 B   cxx   --   ---xx   flac  0.6254  PLQ2003-11-15s2t09.flac
     3:56.758      45457632 B   cxx   --   ---xx   flac  0.4435  PLQ2003-11-15s2t10.flac
     7:02.617      81142580 B   cxx   --   ---xx   flac  0.6035  PLQ2003-11-15s2t11.flac
   160:25.992    1848191228 B                            0.5911  (18 files)
Show Checksums
flac-md5
0be7c1bc7f8e3759fe1dc3ec751f5d9b *PLQ2003-11-15s1t01.flac
feb66d3080bd27628aa0b597c85b3cb5 *PLQ2003-11-15s1t02.flac
2165f6496945e51da1eb53b1e3ac3823 *PLQ2003-11-15s1t03.flac
f8bc9d3bd47706c93b94adb72be1d964 *PLQ2003-11-15s1t04.flac
be52b7b0927cd0912eb7827d0befc99e *PLQ2003-11-15s1t05.flac
310b328285e935a315a7a17c2c916f41 *PLQ2003-11-15s1t06.flac
59a4c1c0cc5ade98d14e57c45d3f7203 *PLQ2003-11-15s1t07.flac
4c9566f8603c258b7944d2f08f02503a *PLQ2003-11-15s2t01.flac
a8f61d92f533e047615713adea3aa5ba *PLQ2003-11-15s2t02.flac
5f8550b815c8f837d4ed5b66742d296e *PLQ2003-11-15s2t03.flac
958e6d75601755ae154a545da0703b51 *PLQ2003-11-15s2t04.flac
0b115408864ea06f31c91cc58edaed98 *PLQ2003-11-15s2t05.flac
fcefe87ed83d7ca60b14bbb7e8c16b32 *PLQ2003-11-15s2t06.flac
476b1a992078cec68dd92a6cb8fead04 *PLQ2003-11-15s2t07.flac
b7022dac09bc2852c7bb1cbaf5ea2c1d *PLQ2003-11-15s2t08.flac
3970f65ca8078cd2a1952b7871afeee6 *PLQ2003-11-15s2t09.flac
6e8d148327ecf696daf0e0c5d14517af *PLQ2003-11-15s2t10.flac
66abc873af8fdf46f0a97b832b6f6115 *PLQ2003-11-15s2t11.flac
ffp
PLQ2003-11-15s1t01.flac:8e7a3688e148566099ed45cffc5bc04c
PLQ2003-11-15s1t02.flac:8061cecffc49b41046fe4c1427cc2952
PLQ2003-11-15s1t03.flac:4a0b7d503d3d9b975246665fb49ce5df
PLQ2003-11-15s1t04.flac:e9c0c29b78515b491ed86f76c4e8f565
PLQ2003-11-15s1t05.flac:7bc533caf7df7e56b2ea9d3af232c15d
PLQ2003-11-15s1t06.flac:3ecf7b74153aa2159476fe02d5e07f7c
PLQ2003-11-15s1t07.flac:22882453efdb8314de51b62b6e78c7db
PLQ2003-11-15s2t01.flac:042d0389b5144574aef8a0f6b946b390
PLQ2003-11-15s2t02.flac:e9b6b6e92c3ac78af5090b0a33895baf
PLQ2003-11-15s2t03.flac:23019450778466bc7ac49358e991b8b5
PLQ2003-11-15s2t04.flac:5359bb4baa54728c4b236a7ee8984f41
PLQ2003-11-15s2t05.flac:98465d01c364cba082dbe0eb7406ecc9
PLQ2003-11-15s2t06.flac:baed88156e62956019c31e5659f40814
PLQ2003-11-15s2t07.flac:ff81d9a430f7632bbd101661e46c2bf3
PLQ2003-11-15s2t08.flac:1969e11a685af0b816c70210c59ab33b
PLQ2003-11-15s2t09.flac:96821c6c2767fdaa36cd18686a3f3246
PLQ2003-11-15s2t10.flac:fb7295613b36378a998a469b6a3f075c
PLQ2003-11-15s2t11.flac:1557508b6d2d65b86003a83d8c700b7a

Comments
Add Comment
Other Sources (comments)
Source: Nakamichi CM-1000s... (3) AKG480's... (0) Source : Audience Recording... (0) Source: Modified Oktava... (0) Source: MBHO... (0)
Date User Comment