Browse Collections Artists Sources   Search Dates

Add Show    List Management    Help


Grateful Dead 03/05/81
Stanley Theater, Pittsburgh, PA
Comments Add Comment    Source Collectors    Add to Collection    Add to Want List    History
Source # 128378 Other Sources
Entered by Gary Field
Checksums orig-ffp , flac-md5 , ffp , orig-md5
Disc Counts 0 / 0
Media Size Compressed: 959.51 MB (1006116310 bytes)
Uncompressed: 1.67 GB (1789287408 bytes)
Date Circulated
Date Added
04/27/2014
04/26/2014
Source Summary flac16; Recording by Jim Wise: Master Audience Cassette; 2 Sennheiser 421s > Sony D-5 Center Loge; Transfer and FLAC encoding by David Minches: April 2014; Dolby B decoded Master played back on Nakamichi Dragon > Korg MR-1000(DSF [1-bit 5.6448 MHz Stereo]) Korg AudioGate > WAV [24/96] > Adobe Audition 3.0 > FLAC encoding 16/44.1 version 
  Archive
Source Information - Download Text | Download Zip
Grateful Dead
March 5, 1981
Stanley Theater
Pittsburgh, PA

Recording by Jim Wise:
Master Audience Cassette; 2 Sennheiser 421s > Sony D-5 Center Loge

Transfer and FLAC encoding by David Minches: April 2014
Dolby B decoded Master played back on Nakamichi Dragon >
Korg MR-1000(DSF [1-bit 5.6448 MHz Stereo]) Korg AudioGate > WAV [24/96] >
Adobe Audition 3.0 > FLAC encoding
16/44.1 version
_____________________________________________________________________________________

--Set 1--
s1t01 - Tuning
s1t02 - Alabama Getaway ->
s1t03 - Greatest Story
s1t04 - Friend of the Devil
s1t05 - C. C. Rider
s1t06 - Althea
s1t07 - Mama Tried ->
s1t08 - Mexicali Blues
s1t09 - To Lay Me Down
s1t10 - New Minglewood Blues
s1t11 - Tennessee Jed
s1t12 - Music Never Stopped

--Set 2--
s2t01 - Jam ->
s2t02 - Passenger
s2t03 - Scarlet Begonias ->
s2t04 - Fire On The Mountain
s2t05 - Playing In The Band ->
s2t06 - Drums ->
s2t07 - Space ->
s2t08 - Not Fade Away ->
s2t09 - Wharf Rat ->
s2t10 - Around and Around ->
s2t11 - Johnny B. Goode

--Encore--
s2t12 - U.S. Blues
_____________________________________________________________________________________

Tagging notes:
Show information is embedded within the headerof each flac file.
It will display on any player capable of directly playing flac files.
If converted to wav during processing, all tags will be stripped,
however audio data will remain unaffected.
If you must transcode to a lossy format, do so directly Flac > Lossy.
Use st5 to validate audio integrity.
Md5 values will change if tagging is altered.
B. Proctor 4/26/2014
_____________________________________________________________________________________

    length     expanded size    cdr  WAVE problems  fmt   ratio  filename
     1:09.59       12310412 B   ---   --   ---xx   flac  0.4823  d01t01 - Tuning.flac
     5:19.05       56283404 B   ---   --   ---xx   flac  0.5829  d01t02 - Alabama Getaway.flac
     4:19.68       45847580 B   ---   --   ---xx   flac  0.5842  d01t03 - Greatest Story Ever Told.flac
     9:26.23       99896540 B   ---   --   ---xx   flac  0.5451  d01t04 - Friend of the Devil.flac
     7:44.72       82018988 B   ---   --   ---xx   flac  0.5656  d01t05 - C. C. Rider.flac
     8:08.59       86222012 B   ---   --   ---xx   flac  0.5417  d01t06 - Althea.flac
     2:31.44       26739932 B   ---   --   ---xx   flac  0.5734  d01t07 - Mama Tried.flac
     5:24.72       57322988 B   ---   --   ---xx   flac  0.5651  d01t08 - Mexicali Blues.flac
     9:45.72      103363388 B   ---   --   ---xx   flac  0.4966  d01t09 - To Lay Me Down.flac
     7:56.13       83997020 B   ---   --   ---xx   flac  0.5674  d01t10 - Minglewood Blues.flac
     8:50.54       93619052 B   ---   --   ---xx   flac  0.5473  d01t11 - Tennessee Jed.flac
     8:10.01       86438396 B   ---   --   ---xx   flac  0.5899  d01t12 - Music Never Stopped.flac
     7:07.69       75485132 B   ---   --   ---xx   flac  0.5603  d02t01 - Jam.flac
     5:35.39       59185772 B   ---   --   ---xx   flac  0.6010  d02t02 - Passenger.flac
    11:30.29      121784252 B   ---   --   ---xx   flac  0.5760  d02t03 - Scarlet Begonias.flac
    11:03.61      117096716 B   ---   --   ---xx   flac  0.5911  d02t04 - Fire On The Mountain.flac
    14:09.62      149909468 B   ---   --   ---xx   flac  0.5443  d02t05 - Playing In The Band.flac
     3:59.23       42213740 B   ---   --   ---xx   flac  0.4583  d02t06 - Drums.flac
     1:59.60       21132764 B   ---   --   ---xx   flac  0.4919  d02t07 - Space.flac
    10:18.11      109041116 B   ---   --   ---xx   flac  0.5811  d02t08 - Not Fade Away.flac
    10:38.39      112634972 B   ---   --   ---xx   flac  0.5591  d02t09 - Wharf Rat.flac
     4:01.60       42653564 B   ---   --   ---xx   flac  0.5875  d02t10 - Around and Around.flac
     4:33.74       48331292 B   ---   --   ---xx   flac  0.6173  d02t11 - Johhny B. Goode.flac
     5:16.07       55758908 B   ---   --   ---xx   flac  0.6155  d02t12 - U.S. Blues.flac
   169:03.26     1789287408 B                            0.5623  (24 files)








Show Checksums
orig-ffp
d01t01 - Tuning.flac:b14bd23fda9acc6ea556e8737ed665f9
d01t02 - Alabama Getaway.flac:84000d1d02b1365b6963554265f8e69c
d01t03 - Greatest Story Ever Told.flac:4bde8083141e7db60645191aed62ed60
d01t04 - Friend of the Devil.flac:4450196319823803329ca2e5626b0707
d01t05 - C. C. Rider.flac:8acbd0bc63e0f31e2a79951dff0dd1bc
d01t06 - Althea.flac:1028ac0d3975d43dd8481863f177cecc
d01t07 - Mama Tried.flac:9f1d95c298074208ae89b1be5a7411e8
d01t08 - Mexicali Blues.flac:31fad39cb1fe277bf8b42c45cbe09ee1
d01t09 - To Lay Me Down.flac:23d0ea85eaa91d31192e178cfddd0dd6
d01t10 - Minglewood Blues.flac:1aeaf34caf4324d0569b7f93817f6298
d01t11 - Tennessee Jed.flac:2476e29a81ac9e81fffa8b1741de85ef
d01t12 - Music Never Stopped.flac:c9971591e6bf804f1305c1c4b9c41ae2
d02t01 - Jam.flac:75b04131d058c1a375fe378ba7b53d74
d02t02 - Passenger.flac:7d12558cfe524355f62209229b070570
d02t03 - Scarlet Begonias.flac:298d30aa07f9b40580bdc1c9d376de51
d02t04 - Fire On The Mountain.flac:f7ded38f0e1666c4aeffec1800929343
d02t05 - Playing In The Band.flac:1c68b9772551ec914e3780b18d5e9f24
d02t06 - Drums.flac:4f60031ea12fc7adf15d597d34e9bdf9
d02t07 - Space.flac:7db600cfd036447940c7d502b8cabca6
d02t08 - Not Fade Away.flac:2eec6b2ffe9f32728bd8d1e5b3b821fd
d02t09 - Wharf Rat.flac:586b1d383da555b3e51d39bcf27fa480
d02t10 - Around and Around.flac:617278ceee600f65bd65a671c34b0b77
d02t11 - Johhny B. Goode.flac:34f58283b776b193c98e105015001872
d02t12 - U.S. Blues.flac:d3020c0014793b6bdc05c6d8725da18c
flac-md5
36c43019b9c736aa88deab63fcd43a04 *d01t01.flac
cbf07f226ab13d4fefd0f0e3b00eafc4 *d01t02.flac
ed44e7481f19ab60d30a8534f6513813 *d01t03.flac
73458657e143f714508dc3f72ef10c76 *d01t04.flac
7bf39c432ee0662bc1e41a27cfbf7eb0 *d01t05.flac
3901718ae7c2f4285bf187996872f64d *d01t06.flac
4ea7c8d2305718938d58fc983e929606 *d01t07.flac
914dd37e7612997a8faef5f8ab9e92bf *d01t08.flac
23fbe3e4d28e0f49ed14956d74fb6c86 *d01t09.flac
ecafa884d96afd0bdc1803c94a490a68 *d01t10.flac
afb9ab79a6d1c28e0ab2f4aa3ecf2508 *d01t11.flac
6dbe48e3111a824b2527747f8b48096a *d01t12.flac
612c7b3c9b2c7c56353b232fa1e96f79 *d02t01.flac
9cfc3589c294a30df38f68e2681c2c7e *d02t02.flac
7bc1c73fdec3cda19b04dc3da05f6d88 *d02t03.flac
ef6e3326ed73db254e0624e517f233cb *d02t04.flac
d3505c786fe76d0898d078edc5451a25 *d02t05.flac
7cee6c0b7d27c37546a1212abac3b978 *d02t06.flac
0d0471a8410fe1ea26eeae1231e4fc43 *d02t07.flac
6f4ef1afdd090a48c26894a6a6ba1a34 *d02t08.flac
1cb5bd2434c9ba86fafecf9d966ad0e6 *d02t09.flac
d9034f87edcd0241d59c87b1f56de9fc *d02t10.flac
de56935c68333ab25c7a2ec9750f8208 *d02t11.flac
db3f681193e3a1971bef8ffd90183d1a *d02t12.flac
ffp
d01t01.flac:b14bd23fda9acc6ea556e8737ed665f9
d01t02.flac:84000d1d02b1365b6963554265f8e69c
d01t03.flac:4bde8083141e7db60645191aed62ed60
d01t04.flac:4450196319823803329ca2e5626b0707
d01t05.flac:8acbd0bc63e0f31e2a79951dff0dd1bc
d01t06.flac:1028ac0d3975d43dd8481863f177cecc
d01t07.flac:9f1d95c298074208ae89b1be5a7411e8
d01t08.flac:31fad39cb1fe277bf8b42c45cbe09ee1
d01t09.flac:23d0ea85eaa91d31192e178cfddd0dd6
d01t10.flac:1aeaf34caf4324d0569b7f93817f6298
d01t11.flac:2476e29a81ac9e81fffa8b1741de85ef
d01t12.flac:c9971591e6bf804f1305c1c4b9c41ae2
d02t01.flac:75b04131d058c1a375fe378ba7b53d74
d02t02.flac:7d12558cfe524355f62209229b070570
d02t03.flac:298d30aa07f9b40580bdc1c9d376de51
d02t04.flac:f7ded38f0e1666c4aeffec1800929343
d02t05.flac:1c68b9772551ec914e3780b18d5e9f24
d02t06.flac:4f60031ea12fc7adf15d597d34e9bdf9
d02t07.flac:7db600cfd036447940c7d502b8cabca6
d02t08.flac:2eec6b2ffe9f32728bd8d1e5b3b821fd
d02t09.flac:586b1d383da555b3e51d39bcf27fa480
d02t10.flac:617278ceee600f65bd65a671c34b0b77
d02t11.flac:34f58283b776b193c98e105015001872
d02t12.flac:d3020c0014793b6bdc05c6d8725da18c
orig-md5
36c43019b9c736aa88deab63fcd43a04 *d01t01 - Tuning.flac
cbf07f226ab13d4fefd0f0e3b00eafc4 *d01t02 - Alabama Getaway.flac
ed44e7481f19ab60d30a8534f6513813 *d01t03 - Greatest Story Ever Told.flac
73458657e143f714508dc3f72ef10c76 *d01t04 - Friend of the Devil.flac
7bf39c432ee0662bc1e41a27cfbf7eb0 *d01t05 - C. C. Rider.flac
3901718ae7c2f4285bf187996872f64d *d01t06 - Althea.flac
4ea7c8d2305718938d58fc983e929606 *d01t07 - Mama Tried.flac
914dd37e7612997a8faef5f8ab9e92bf *d01t08 - Mexicali Blues.flac
23fbe3e4d28e0f49ed14956d74fb6c86 *d01t09 - To Lay Me Down.flac
ecafa884d96afd0bdc1803c94a490a68 *d01t10 - Minglewood Blues.flac
afb9ab79a6d1c28e0ab2f4aa3ecf2508 *d01t11 - Tennessee Jed.flac
6dbe48e3111a824b2527747f8b48096a *d01t12 - Music Never Stopped.flac
612c7b3c9b2c7c56353b232fa1e96f79 *d02t01 - Jam.flac
9cfc3589c294a30df38f68e2681c2c7e *d02t02 - Passenger.flac
7bc1c73fdec3cda19b04dc3da05f6d88 *d02t03 - Scarlet Begonias.flac
ef6e3326ed73db254e0624e517f233cb *d02t04 - Fire On The Mountain.flac
d3505c786fe76d0898d078edc5451a25 *d02t05 - Playing In The Band.flac
7cee6c0b7d27c37546a1212abac3b978 *d02t06 - Drums.flac
0d0471a8410fe1ea26eeae1231e4fc43 *d02t07 - Space.flac
6f4ef1afdd090a48c26894a6a6ba1a34 *d02t08 - Not Fade Away.flac
1cb5bd2434c9ba86fafecf9d966ad0e6 *d02t09 - Wharf Rat.flac
d9034f87edcd0241d59c87b1f56de9fc *d02t10 - Around and Around.flac
de56935c68333ab25c7a2ec9750f8208 *d02t11 - Johhny B. Goode.flac
db3f681193e3a1971bef8ffd90183d1a *d02t12 - U.S. Blues.flac

Comments
Add Comment
Other Sources (comments)
Audience recording by Jim... (0) Set 2 soundboard, minus... (1) flac16; Recording by... (1) flac24; Recording by... (0) flac16; Recorded By... (0) flac16; AUD: Unknown... (0) flac16; Source Info:... (0) flac24; Source Info:... (0)
Date User Comment