Browse Collections Artists Sources   Search Dates

Add Show    List Management    Help


Grateful Dead 07/12/90
Robert F. Kennedy Stadium, Washington, DC
Comments Add Comment    Source Collectors    Add to Collection    Add to Want List    History
Source # 128388 Other Sources
Entered by Matt Vernon
Checksums ffp , flac-md5
Disc Counts 0 / 0
Media Size Compressed: 1.01 GB (1084411940 bytes)
Date Circulated
Date Added
04/26/2014
04/26/2014
Source Summary flac16; Matrix mix of AUD shnid 121537 and SBD shnid 021980 with patches from shnid 97709; Mixed by Nick Crump 
  Archive
Source Information - Download Text | Download Zip
Grateful Dead
Robert F. Kennedy Stadium
Washington, DC
July 12, 1990

Audience/Soundboard Mix
Mixed by Nick Crump
Eugene, Oregon
March 2014

Patches applied: 3 seconds during Dark Star
  3:36 during Drums

Source 1 (audience) gd1990-07-12.AKG451.Currier.Keo.121537.Flac1644
  Master Audience Recorded By Mr. Currier, Transfer By Keo
  AKGC451EB/CK1's>AKG 9V Phantom Power>Marantz PDM 430>
  Probaly Dolby (Not Marked)>Tapes Maxell MX-100's
  Transfer With Nakamichi MR-1>No Dolby>Korg MR-1000 @ 1 Bit/5.6 MHz
  Tracking/Sample Rate Conversion With AudioGate Software To 32/96 kHz Wave
  Dithered/Flacked With Korg Aqua To 16/44
  SBE's Checked/Fixed With Trader's Little Helper
  Metadata Tagging With Tag&Rename
  Comments:Another huge thanks out to Mr. Currier for
  recording and sharing his source for this show!Some
  crowd noise,some rain but the Dark Star,oh my the
  Dark Star and the Jam!!!!!!!!!!!!!!!!!!!!!!!!!
  AS ALWAYS ENJOY!!!!!!!!!!!!!!!!!!!!!!!!!!!

Source 2 (soundboard) gd90-07-12.021980.sbd.miller.sbeok.t-flac16
  Recording Info:
  Set One: SBD -> Dat
  Set Two: SBD -> Cassette Master (TDK SA-X 100)
  Transfer Info:
  Set One: Dat (Sony R500) -> SEK'D Prodif Plus -> Samplitude v7.02 Professional -> SHN
  Set Two: Cassette Master (Sony TC-WE475/Azimuth Adjusted) -> Apogee Mini-Me (16bit /44.1k) ->
  SEK'D Prodif Plus -> Samplitude v7.02 Professional -> SHN
  (3 Discs Audio / 2 Discs SHN)
  All Transfers and Edits Done By Charlie Miller
  [email protected]
  1/27/04
  Notes:
  The tape flip durig Drums and the end of The Weight (which still gets cut) were both patched
  with a differant version of the show which I found on etree. The version on etree was listed
  as a DSBD, which it isn't. The DSBD did NOT circulate until now, and only the first set
  circulates. I compared the Cassette Master that I have here to what currently circulates and
  what I have is cleaner. The etree version is brighter and tinny with more hiss which leads me
  to believe that it has multiple cassette gens and/or possibly some improper dolby decoding
  involved. I can confirm 100% that my source info is correct. The whole show is seemless. Also,
  it is raining so hard that you can hear it on the tape.

Source 3 (audience patch source) gd1990-07-12.fob.schoeps.unknown.ebel.97709.flac16
  Source:   FOB-Schoeps CMC3 MK4-> Oade P/S->Sony D10 Pro->DAT->CDR->WAV->FLAC
  Transfer: Dat Clone->Panasonic SV3700-> Marantz CDR 615-> CDR Ripped with EAC (No Errors)
  Tracks Named -> Flac (Level 8) with Traders Little Helper and Tagged
  with Foobar 2000. Transfers by Pete Ebel on March 3, 2009

Thank you to all involved in providing the sources used for this mix: Keo, Mr. Currier, Pete Ebel and Charlie Miller.

Set One:
d1t01 - Tuning
d1t02 - Let The Good Times Roll
d1t03 - Feel Like A Stranger
d1t04 - Bertha
d1t05 - Just A Little Light
d1t06 - Queen Jane Approximately
d1t07 - Stagger Lee
d1t08 - Cassidy
d1t09 - Tennessee Jed ->
d1t10 - The Music Never Stopped

Set Two:
d2t01 - Take A Step Back
d2t02 - Box Of Rain ->
d2t03 - Victim Or The Crime ->
d2t04 - Foolish Heart ->
d2t05 - Dark Star ->
d2t06 - Drums ->
d3t01 - Space ->
d3t02 - All Along The Watchtower ->
d3t03 - Dear Mr. Fantasy ->
d3t04 - Hey Jude ->
d3t05 - Touch Of Grey

Encore:
d3t06 - Tuning
d3t07 - The Weight


    length     expanded size    cdr  WAVE problems  fmt   ratio  filename
     1:31.29       16120652 B   ---   --   ---xx   flac  0.5043  gd90-07-12d1t01.flac
     5:39.34       59879612 B   ---   --   ---xx   flac  0.5518  gd90-07-12d1t02.flac
    10:40.74      113070092 B   ---   --   ---xx   flac  0.5510  gd90-07-12d1t03.flac
     7:10.46       75960236 B   ---   --   ---xx   flac  0.5624  gd90-07-12d1t04.flac
     6:34.59       69640412 B   ---   --   ---xx   flac  0.5442  gd90-07-12d1t05.flac
     7:46.03       82209500 B   ---   --   ---xx   flac  0.5460  gd90-07-12d1t06.flac
     7:06.71       75313436 B   ---   --   ---xx   flac  0.5235  gd90-07-12d1t07.flac
     9:10.31       97092956 B   ---   --   ---xx   flac  0.5295  gd90-07-12d1t08.flac
     8:01.02       84853148 B   ---   --   ---xx   flac  0.5602  gd90-07-12d1t09.flac
     8:08.44       86186732 B   ---   --   ---xx   flac  0.5704  gd90-07-12d1t10.flac
     6:02.16       63894476 B   ---   --   ---xx   flac  0.5334  gd90-07-12d2t01.flac
     5:19.42       56370428 B   ---   --   ---xx   flac  0.5739  gd90-07-12d2t02.flac
     8:25.55       89211404 B   ---   --   ---xx   flac  0.5778  gd90-07-12d2t03.flac
    10:11.50      107898044 B   ---   --   ---xx   flac  0.5769  gd90-07-12d2t04.flac
    24:55.14      263750972 B   ---   --   ---xx   flac  0.5581  gd90-07-12d2t05.flac
    10:37.16      112404476 B   ---   --   ---xx   flac  0.5280  gd90-07-12d2t06.flac
    15:34.08      164776460 B   ---   --   ---xx   flac  0.5214  gd90-07-12d3t01.flac
     5:59.28       63393500 B   ---   --   ---xx   flac  0.5892  gd90-07-12d3t02.flac
     4:55.06       52052156 B   ---   --   ---xx   flac  0.5771  gd90-07-12d3t03.flac
     4:12.06       44466956 B   ---   --   ---xx   flac  0.5989  gd90-07-12d3t04.flac
     7:20.43       77717180 B   ---   --   ---xx   flac  0.6046  gd90-07-12d3t05.flac
     1:45.16       18559676 B   ---   --   ---xx   flac  0.5460  gd90-07-12d3t06.flac
     6:47.59       71933612 B   ---   --   ---xx   flac  0.6124  gd90-07-12d3t07.flac
   183:56.02     1946756116 B                            0.5570  (23 files)



Show Checksums
ffp
gd90-07-12d1t01.flac:24e962e6d1e64137c80c7cf68b93cfba
gd90-07-12d1t02.flac:e8217d4ff0c52ddac6133b84bfc7d7ed
gd90-07-12d1t03.flac:2191ee1ea1e7b48102262e920e7dc2ba
gd90-07-12d1t04.flac:a157cadab7260a255595d33962f38386
gd90-07-12d1t05.flac:9ffa25707e47f3fd4e97998e80ede173
gd90-07-12d1t06.flac:476c4a60e7a491f1cf4ac1c873e116bb
gd90-07-12d1t07.flac:321888a566aa718e0e5a52af29bd8862
gd90-07-12d1t08.flac:9b5753d763f96ee6ce647591c17bc35a
gd90-07-12d1t09.flac:9cf09efc44195a6510d21ef9383429df
gd90-07-12d1t10.flac:7d6563590ff3e28155a08d43ad80dde0
gd90-07-12d2t01.flac:82bdcb9749293c3e8831e9bdd83867ab
gd90-07-12d2t02.flac:345fe0b31cf3a72bfd14e70429d4e253
gd90-07-12d2t03.flac:0e913f11e9ccbc4ae0fb0c71ec581d50
gd90-07-12d2t04.flac:4cf72e660f0acea8c19a1dfe042cde62
gd90-07-12d2t05.flac:7075fa11410719eea0104330f696b461
gd90-07-12d2t06.flac:75c524f67baae585b1075e50a979985b
gd90-07-12d3t01.flac:19d81499385ba2c26f05b98db59b17b5
gd90-07-12d3t02.flac:856beb780b2e6851e58e0b66205e5fff
gd90-07-12d3t03.flac:b5a3a98cda0c763c8e1640dafec5ef5c
gd90-07-12d3t04.flac:04c5063e49d70a65307e988604f6e27c
gd90-07-12d3t05.flac:d4db86550a6be01d77148fc635897601
gd90-07-12d3t06.flac:9db5b2e2f395c75bc8be4df315b78fff
gd90-07-12d3t07.flac:f95cd22db89568eea35ee9b6646e350e
flac-md5
365ee6a157aa8434b7f28262826d8a5c *gd90-07-12d1t01.flac
d67992658849f8d1c23b7f9e890dbd12 *gd90-07-12d1t02.flac
20a912eb6c00b18a68b499a645df98d8 *gd90-07-12d1t03.flac
aa3514a76dc37b1ccb19ebc8974b767d *gd90-07-12d1t04.flac
833c072e287701bda8cb97809d8993b5 *gd90-07-12d1t05.flac
430cb0721fe5f1036a174612daec76d8 *gd90-07-12d1t06.flac
3dcefc439fa8bbb0df6353e64fb4f455 *gd90-07-12d1t07.flac
067e3f630827d8c338f5733b6cffc8ef *gd90-07-12d1t08.flac
dd6bdbcaa55e025032a4f0cdac2713de *gd90-07-12d1t09.flac
f71a14ad9fd8077c320efb1c478b5534 *gd90-07-12d1t10.flac
461830b4409337907b6bd1b5b549a075 *gd90-07-12d2t01.flac
bea612da1a0b7fcde4af5d5ac6281a89 *gd90-07-12d2t02.flac
022372f1a791ae89e8bcbf836aa538cd *gd90-07-12d2t03.flac
77261363a923d960d908e875a22a1302 *gd90-07-12d2t04.flac
ba59d3811fe36ba3e266ba86eba2391a *gd90-07-12d2t05.flac
7a783bd4da0224710128db2820f6cac8 *gd90-07-12d2t06.flac
6c5d91d2270072d96d3b9546dd3f7553 *gd90-07-12d3t01.flac
718f2a75a6ae998eb0f59150e590fbb1 *gd90-07-12d3t02.flac
e8781f802e7584cf148dd011cd1878c4 *gd90-07-12d3t03.flac
bc81eb21a03d65b13dcd75f07b84212e *gd90-07-12d3t04.flac
f85432267f8385ebffb008796fe94560 *gd90-07-12d3t05.flac
0fdacaf5adefaa6d34dc4b2f8dfeb01d *gd90-07-12d3t06.flac
d25034c28347103c792c19c18a69e0b5 *gd90-07-12d3t07.flac

Comments
Add Comment
Other Sources (comments)
SBD > DAT > DAT clones >... (10) source, lineage... (4) Recording Info: Set One:... (3) flac16; Source:... (0) flac24; Master... (0) flac16; Master... (0) flac24; Master... (0) flac16; Master... (0) flac16; Source: AKG... (0) flac16/48kHz; Rick... (0)
Date User Comment