Browse Collections Artists Sources   Search Dates

Add Show    List Management    Help


Phish 10/19/13
Hampton Coliseum, Hampton, VA
Comments Add Comment    Source Collectors    Add to Collection    Add to Want List    History
Source # 128417 Other Sources
Entered by Terry Watts
Checksums FFP
Disc Counts 0 / 0
Media Size
Date Circulated
Date Added

04/28/2014
Source Summary flac16 (OTS/DIN/ROC/15' high) Microtech Gefell m300 > Sound Devices USB Pre 2 > Edirol R-44; Edirol R-44 > Sound Forge > CD Wave > FLAC; Taped & Transferred by Frank Bubel (mgtaper) 
Source Information - Download Text | Download Zip
Phish
10-19-2013
Hampton Coliseum
Hampton, VA

Source: Microtech Gefell m300 (DIN) > Kind Kables > Sound Devices USB Pre 2(24/48) > Edirol R-44(24/48)
Location: OTS, ROC @ 15' High
Transfer: SDHC > Sony Sound Forge 9.0(fades, dither, resample and normalized) > CD Wave  > Trader's Little Helper > Foobar2000

Taped & Transferred by Frank Bubel (mgtaper)


*****This is a 16 bit recording, and has been tracked to be burned to 3 CD-R's******

Setlist

Set 01

Disc 01

01. Crowd
02. Bathtub Gin
03. The Moma Dance
04. Tube >
05. Fast Enough for You
06. The Ballad of Curtis Loew >
07. Ya Mar
08. Stealing Time From the Faulty Plan
09. My Sweet One

Run Time: 54 mins 25 secs

Disc 02

01. Mike's Song >
02. I Am Hydrogen >
03. Weekapaug Groove

Set 02

04. Crowd
05. Ghost >
06. Down with Disease[1] >
07. Steam[2] >

Run Time: 57 mins 27 secs

Disc 03

01. Prince Caspian[1] >
02. Boogie On Reggae Woman
03. Theme From the Bottom >
04. The Wedge
05. Silent in the Morning
06. Harry Hood
07. Encore break
08. E:Quinn the Eskimo

Run Time: 54 mins 17 secs

Total Run Time: 2 hrs 46 mins 09 secs

Comment
[1] Unfinished
[2] Trey on drums; Mike playing his fight bell with drumsticks and playing drill on his bass



    length     expanded size    cdr  WAVE problems  fmt   ratio  filename
     0:28.51        5059196 B   ---   --   ---xx   flac  0.3484  ph2013-10-19.mg.m300.d01tr01.flac
    11:05.41      117402476 B   ---   --   ---xx   flac  0.5110  ph2013-10-19.mg.m300.d01tr02.flac
     8:34.51       90789596 B   ---   --   ---xx   flac  0.5212  ph2013-10-19.mg.m300.d01tr03.flac
     5:40.54       60103052 B   ---   --   ---xx   flac  0.5306  ph2013-10-19.mg.m300.d01tr04.flac
     8:13.20       87012284 B   ---   --   ---xx   flac  0.4787  ph2013-10-19.mg.m300.d01tr05.flac
     5:02.52       53395148 B   ---   --   ---xx   flac  0.4904  ph2013-10-19.mg.m300.d01tr06.flac
     6:34.18       69543980 B   ---   --   ---xx   flac  0.5184  ph2013-10-19.mg.m300.d01tr07.flac
     5:34.34       58997612 B   ---   --   ---xx   flac  0.5536  ph2013-10-19.mg.m300.d01tr08.flac
     3:15.09       34419212 B   ---   --   ---xx   flac  0.5292  ph2013-10-19.mg.m300.d01tr09.flac
     7:50.14       82940972 B   ---   --   ---xx   flac  0.5457  ph2013-10-19.mg.m300.d02tr01.flac
     2:54.53       30818300 B   ---   --   ---xx   flac  0.4678  ph2013-10-19.mg.m300.d02tr02.flac
     9:40.59      102450812 B   ---   --   ---xx   flac  0.5309  ph2013-10-19.mg.m300.d02tr03.flac
     0:12.48        2229740 B   ---   --   ---xx   flac  0.4199  ph2013-10-19.mg.m300.d02tr04.flac
    17:32.59      185711612 B   ---   --   ---xx   flac  0.5286  ph2013-10-19.mg.m300.d02tr05.flac
     8:34.05       90681404 B   ---   --   ---xx   flac  0.5346  ph2013-10-19.mg.m300.d02tr06.flac
    10:45.33      113855660 B   ---   --   ---xx   flac  0.5235  ph2013-10-19.mg.m300.d02tr07.flac
     5:44.44       60785132 B   ---   --   ---xx   flac  0.5135  ph2013-10-19.mg.m300.d03tr01.flac
     6:07.50       64856444 B   ---   --   ---xx   flac  0.5307  ph2013-10-19.mg.m300.d03tr02.flac
     8:12.40       86882924 B   ---   --   ---xx   flac  0.5077  ph2013-10-19.mg.m300.d03tr03.flac
     7:22.05       77980604 B   ---   --   ---xx   flac  0.5421  ph2013-10-19.mg.m300.d03tr04.flac
     5:01.09       53117612 B   ---   --   ---xx   flac  0.4980  ph2013-10-19.mg.m300.d03tr05.flac
    12:37.26      133595996 B   ---   --   ---xx   flac  0.5121  ph2013-10-19.mg.m300.d03tr06.flac
     3:17.20       34797884 B   ---   --   ---xx   flac  0.4658  ph2013-10-19.mg.m300.d03tr07.flac
     5:57.45       63080684 B   ---   --   ---xx   flac  0.5474  ph2013-10-19.mg.m300.d03tr08.flac
   166:20.15     1760508336 B                            0.5195  (24 files)

Show Checksums
FFP
ph2013-10-19.mg.m300.d01tr01.flac:b00096004d457c80a80a28e35a476648
ph2013-10-19.mg.m300.d01tr02.flac:40168e4c44d08456d4739ca2924d74db
ph2013-10-19.mg.m300.d01tr03.flac:cb4010725ae6ddfb0c9a30028c4f4ded
ph2013-10-19.mg.m300.d01tr04.flac:659fb9d7a4114f009c1bcbf74fa4e2e0
ph2013-10-19.mg.m300.d01tr05.flac:72cc63e52c90affd162c7df49d8f7500
ph2013-10-19.mg.m300.d01tr06.flac:9c4922b5acb41615698023b31cc66054
ph2013-10-19.mg.m300.d01tr07.flac:a2cb9afd4e96386725af1b106c58e090
ph2013-10-19.mg.m300.d01tr08.flac:3045b32ca85e755c688f80de89eb4ea1
ph2013-10-19.mg.m300.d01tr09.flac:70469e76250c7831665eb13717b19569
ph2013-10-19.mg.m300.d02tr01.flac:f4c47d99ef8ae9e49daeed6dbc0f610a
ph2013-10-19.mg.m300.d02tr02.flac:8974491837d154678211124803dffeac
ph2013-10-19.mg.m300.d02tr03.flac:2b7e77acb8f8d006bca4ebf72094b300
ph2013-10-19.mg.m300.d02tr04.flac:87fb7c04ea39aca28d4e4418c0b7471f
ph2013-10-19.mg.m300.d02tr05.flac:775650cff57a8ca0e58987e37c905c42
ph2013-10-19.mg.m300.d02tr06.flac:82b31788579dcd6a697de836e5eb2a8e
ph2013-10-19.mg.m300.d02tr07.flac:e80c3cc8b849735e0ad25750d40fadb2
ph2013-10-19.mg.m300.d03tr01.flac:93fa96e3462cc89fefe3f9a980d235b1
ph2013-10-19.mg.m300.d03tr02.flac:8fc9c16ed52a94f3bfbb2ac706f752d0
ph2013-10-19.mg.m300.d03tr03.flac:4bdbe7778927bc39f58c878c74fb0326
ph2013-10-19.mg.m300.d03tr04.flac:40a033304e2ec7169cd0d2527ee29a54
ph2013-10-19.mg.m300.d03tr05.flac:81705c54aea6f17a39a547c2c3221b17
ph2013-10-19.mg.m300.d03tr06.flac:3b99b564741b25cabbeacc83e70ea2d6
ph2013-10-19.mg.m300.d03tr07.flac:d702e9436d32f1d38000dbf3c8286a32
ph2013-10-19.mg.m300.d03tr08.flac:25cac70fea1a625f00b4c786ae6723ef

Comments
Add Comment
Other Sources (comments)
flac16; (FOB)... (0) flac16; Schoeps... (0) flac16; AKG C414xls... (0) flac16; (FOB)... (0) flac16; (FOB)... (0) flac24; (FOB)... (0) flac16; AKG... (0) flac24; Schoeps... (0) flac24;... (0) flac16 OTS Floor, at... (0) flac16 Beyerdynamic... (0)
Date User Comment