Browse Collections Artists Sources   Search Dates

Add Show    List Management    Help


Phish 10/20/13
Hampton Coliseum, Hampton, VA
Comments Add Comment    Source Collectors    Add to Collection    Add to Want List    History
Source # 128419 Other Sources
Entered by Terry Watts
Checksums FFP
Disc Counts 0 / 0
Media Size
Date Circulated
Date Added

04/28/2014
Source Summary flac16; (OTS/DIN/DFC/15' high) Microtech Gefell m300 > Sound Devices USB Pre 2 > Edirol R-44; Edirol R-44 > Sound Forge > CD Wave > FLAC; Taped & Transferred by Frank Bubel (mgtaper) 
Source Information - Download Text | Download Zip
Phish
10-20-2013
Hampton Coliseum
Hampton, VA

Source: Microtech Gefell m300 (PAS) > Kind Kables > Sound Devices USB Pre 2(24/48) > Edirol R-44(24/48)
Location: OTS, DFC @ 15' High
Transfer: SDHC > Sony Sound Forge 9.0(fades, dither, resample and normalized) > CD Wave  > Trader's Little Helper > Foobar2000

Taped & Transferred by Frank Bubel (mgtaper)


*****This is a 16 bit recording, and has been tracked to be burned to 3 CD-R's******



Setlist:

Set 01

Disc 01

01. Crowd
02. Julius
03. Funky Bitch
04. Back On The Train
05. Roses Are Free >
06. Sample In A Jar
07. Ginseng Sullivan
08. 46 Days
09. Divided Sky

Run Time: 1 hr 07 mins 27 secs

Disc 02

01. Bold As Love

Set 02

02. Crowd/Trey Speaks
03. Paul And Silas >
04. Tweezer[1] >
05. Golden Age >

Run Time: 51 mins 40 secs

Disc 03

01. Piper >
02. Takin' Care Of Business >
03. Also Sprach Zarathustra >
04. Sand >
05. Slave To The Traffic Light
06. Encore Break
07. E:A Day In The Life >
08. E:Tweezer Reprise

Run Time: 52 mins 57 secs

Total Run Time: 2 hrs 52 mins 04 secs


Comment
[1] Mike uses power drill



    length     expanded size    cdr  WAVE problems  fmt   ratio  filename
     0:47.30        8361404 B   ---   --   ---xx   flac  0.3954  ph2013-10-20.mg.m300.d01tr01.flac
     7:28.06       79041356 B   ---   --   ---xx   flac  0.4936  ph2013-10-20.mg.m300.d01tr02.flac
     6:48.71       72138236 B   ---   --   ---xx   flac  0.5119  ph2013-10-20.mg.m300.d01tr03.flac
     9:32.31      100973756 B   ---   --   ---xx   flac  0.4806  ph2013-10-20.mg.m300.d01tr04.flac
     6:59.51       74031596 B   ---   --   ---xx   flac  0.5038  ph2013-10-20.mg.m300.d01tr05.flac
     6:15.62       66295868 B   ---   --   ---xx   flac  0.4792  ph2013-10-20.mg.m300.d01tr06.flac
     3:01.70       32093084 B   ---   --   ---xx   flac  0.4677  ph2013-10-20.mg.m300.d01tr07.flac
     7:52.56       83392556 B   ---   --   ---xx   flac  0.5144  ph2013-10-20.mg.m300.d01tr08.flac
    18:45.10      198473564 B   ---   --   ---xx   flac  0.4671  ph2013-10-20.mg.m300.d01tr09.flac
     7:08.27       75562748 B   ---   --   ---xx   flac  0.5118  ph2013-10-20.mg.m300.d02tr01.flac
     1:08.18       12037580 B   ---   --   ---xx   flac  0.3892  ph2013-10-20.mg.m300.d02tr02.flac
     2:24.10       25425164 B   ---   --   ---xx   flac  0.5100  ph2013-10-20.mg.m300.d02tr03.flac
    23:47.67      251880428 B   ---   --   ---xx   flac  0.4875  ph2013-10-20.mg.m300.d02tr04.flac
    17:13.36      182305916 B   ---   --   ---xx   flac  0.4843  ph2013-10-20.mg.m300.d02tr05.flac
     6:41.20       70783484 B   ---   --   ---xx   flac  0.5298  ph2013-10-20.mg.m300.d03tr01.flac
     5:35.57       59228108 B   ---   --   ---xx   flac  0.5136  ph2013-10-20.mg.m300.d03tr02.flac
     8:14.46       87249836 B   ---   --   ---xx   flac  0.4837  ph2013-10-20.mg.m300.d03tr03.flac
     9:32.56      101032556 B   ---   --   ---xx   flac  0.4989  ph2013-10-20.mg.m300.d03tr04.flac
    10:49.50      114601244 B   ---   --   ---xx   flac  0.4474  ph2013-10-20.mg.m300.d03tr05.flac
     3:14.38       34311020 B   ---   --   ---xx   flac  0.4182  ph2013-10-20.mg.m300.d03tr06.flac
     5:06.49       54093692 B   ---   --   ---xx   flac  0.4864  ph2013-10-20.mg.m300.d03tr07.flac
     3:46.07       39882908 B   ---   --   ---xx   flac  0.5242  ph2013-10-20.mg.m300.d03tr08.flac
   172:15.43     1823196104 B                            0.4872  (22 files)

Show Checksums
FFP
ph2013-10-20.mg.m300.d01tr01.flac:216f808cfee153b76f24de8493b5fc26
ph2013-10-20.mg.m300.d01tr02.flac:3f65f0253de145bad2cf62e94268987a
ph2013-10-20.mg.m300.d01tr03.flac:a1b84531d136f6a913c0510ddfe66960
ph2013-10-20.mg.m300.d01tr04.flac:720dd01918de2eed44d38b6ca213e03d
ph2013-10-20.mg.m300.d01tr05.flac:c676b819ce14b565f9c3f9bf191a77d8
ph2013-10-20.mg.m300.d01tr06.flac:851cc46a352b48c353e4c2692c95ea68
ph2013-10-20.mg.m300.d01tr07.flac:9f6ca3786bafe6d0a8dd1ca1fbf0109a
ph2013-10-20.mg.m300.d01tr08.flac:e569996b4bed3d43e63addd041c0bb87
ph2013-10-20.mg.m300.d01tr09.flac:391f3c3874f1642a377e8deb1300055c
ph2013-10-20.mg.m300.d02tr01.flac:07a5b00d913404166804b5710b741cfc
ph2013-10-20.mg.m300.d02tr02.flac:af65e38a3eb483f278b46e394a3b18b5
ph2013-10-20.mg.m300.d02tr03.flac:886a4418bf6a265286778929e3650f9b
ph2013-10-20.mg.m300.d02tr04.flac:e16360589a79374160c3ba85d0404de9
ph2013-10-20.mg.m300.d02tr05.flac:dd93d7d5b028bc21f558afbb02711be3
ph2013-10-20.mg.m300.d03tr01.flac:fd7347b0d1fe2a652f792ba7040ee4a1
ph2013-10-20.mg.m300.d03tr02.flac:6c6e91dbae89a32d0e9874dbf83cedbf
ph2013-10-20.mg.m300.d03tr03.flac:a591100df8deb8c4a8891a65c8ef16ea
ph2013-10-20.mg.m300.d03tr04.flac:979ecbf7f8d02abc3fb58fcd5cf28009
ph2013-10-20.mg.m300.d03tr05.flac:ba7eb8af0e92d78fbec05029eb64df23
ph2013-10-20.mg.m300.d03tr06.flac:1bd8ba9cda3d8cd796a85f9cb1fe89b7
ph2013-10-20.mg.m300.d03tr07.flac:bcccc40f5164431fed8286f945f64c4d
ph2013-10-20.mg.m300.d03tr08.flac:6ac7a3c608eefeaf44e07743a0f929ed

Comments
Add Comment
Other Sources (comments)
flac16; Schoeps... (0) flac16; Neumann ak40... (0) flac16; Neumann ak50... (0) flac16; AKG... (0) flac16; AKG C414xls... (0) flac24; Schoeps... (0) flac24... (0) flac16 OTS Floor, at... (0) flac16 Beyerdynamic... (0)
Date User Comment