Browse Collections Artists Sources   Search Dates

Add Show    List Management    Help


Grateful Dead 10/13/81
Walter Koebel Halle, Russelsheim, Germany
Comments Add Comment    Source Collectors    Add to Collection    Add to Want List    History
Source # 128542 Other Sources
Entered by Matt Vernon
Checksums ffp , flac-md5
Disc Counts 2 / 2
Media Size
Date Circulated
Date Added
05/03/2014
05/03/2014
Source Summary flac16; Recording and transfer info: SBD > MC > C > C (Maxell XL II) C > Pioneer deck > wav > Sound Forge 10 > TLH > flac 
  Archive
Source Information - Download Text | Download Zip
THE GRATEFUL DEAD
Walter Koebel Halle
Russelsheim, Germany
October 13, 1981

Recording and transfer info:
SBD > MC > C > C (Maxell XL II)
C > Pioneer deck > wav > Sound Forge 10 > TLH > flac

This is a one or more gen upgrade. I compared my tapes with only
circulating version, shnid 13143, and it is a big improvement.No NR.
There were sbd mix and level issues for most of performance.
Keyboards are prominent. Very little Bob guitar, Jerry's guitar wavers
in volume throughout, but can be heard. Jerry was also lyric challenged.
Phil's bass can sometimes be heard.

Transferred, tracked and mastered by Bill Guarneri. May 3, 2014

Fixes:
Set 1, track 07, 06:23 - 07:46 patched with aud shnid: 7496
Set 2, track 10, 0:00 - 01:40 patched with aud shnid: 7496
These flaws not noted in comments to shnid 13143

Jerry Garcia, guitar - vocals
Bob Weir, guitar - vocals
Phil Lesh, bass
Brent Mydland, keyboards - vocals
Bill Kreutzmann, drums
Mickey Hart, drums - percussion

Set 1
01. Alabama Getaway >
02. Greatest Story Ever Told
03. They Love Each Other
04. C. C. Rider
05. Peggy O
06. Cassidy
07. To Lay Me Down
08. Minglewood Blues
09. Bird Song
10. Looks Like Rain
11. Dont Ease Me In

Set 2
01. Cold Rain And Snow >
02. Lost Sailor >
03. Saint Of Circumstance >
04. Jam >
05. Drums >
06. Space >
07. Spanish Jam >
08. The Wheel >
09. Sugar Magnolia
10. Black Peter
11. Sunshine Daydream
Encore
12. (I Can't Get No) Satisfaction

length     expanded size    cdr  WAVE problems  fmt   ratio  filename
     5:08.34       54411212 B   ---   --   ---xx   flac  0.5613  gd1981-10-13d1t01.flac
     4:30.28       47693900 B   ---   --   ---xx   flac  0.5390  gd1981-10-13d1t02.flac
     6:49.24       72204092 B   ---   --   ---xx   flac  0.5529  gd1981-10-13d1t03.flac
     8:22.01       88555196 B   ---   --   ---xx   flac  0.5469  gd1981-10-13d1t04.flac
     6:25.13       67944620 B   ---   --   ---xx   flac  0.5298  gd1981-10-13d1t05.flac
     5:49.17       61603628 B   ---   --   ---xx   flac  0.5642  gd1981-10-13d1t06.flac
     9:12.68       97532780 B   ---   --   ---xx   flac  0.6174  gd1981-10-13d1t07.flac
     7:12.33       76282460 B   ---   --   ---xx   flac  0.5693  gd1981-10-13d1t08.flac
    10:08.32      107326508 B   ---   --   ---xx   flac  0.5544  gd1981-10-13d1t09.flac
     9:16.60       98219564 B   ---   --   ---xx   flac  0.5123  gd1981-10-13d1t10.flac
     3:21.45       35562284 B   ---   --   ---xx   flac  0.6457  gd1981-10-13d1t11.flac
     6:00.27       63567548 B   ---   --   ---xx   flac  0.5584  gd1981-10-13d2t01.flac
     7:10.72       76021388 B   ---   --   ---xx   flac  0.5412  gd1981-10-13d2t02.flac
     6:55.03       73213100 B   ---   --   ---xx   flac  0.5728  gd1981-10-13d2t03.flac
     7:53.57       83571308 B   ---   --   ---xx   flac  0.5700  gd1981-10-13d2t04.flac
     7:38.57       80925308 B   ---   --   ---xx   flac  0.4379  gd1981-10-13d2t05.flac
     6:04.33       64287260 B   ---   --   ---xx   flac  0.4444  gd1981-10-13d2t06.flac
     6:22.16       67422476 B   ---   --   ---xx   flac  0.5249  gd1981-10-13d2t07.flac
     4:45.47       50384588 B   ---   --   ---xx   flac  0.5558  gd1981-10-13d2t08.flac
     6:15.24       66206492 B   ---   --   ---xx   flac  0.6119  gd1981-10-13d2t09.flac
    10:10.41      107700476 B   ---   --   ---xx   flac  0.4863  gd1981-10-13d2t10.flac
     3:55.13       41484620 B   ---   --   ---xx   flac  0.5832  gd1981-10-13d2t11.flac
     6:09.58       65228060 B   ---   --   ---xx   flac  0.5793  gd1981-10-13d2t12.flac
   155:38.53     1647348868 B                            0.5465  (23 files)

Show Checksums
ffp
gd1981-10-13d1t01.flac:44b8e2004171435210f8ec7d1e405432
gd1981-10-13d1t02.flac:34963eba2d1d5c833ddc505e5835cc2a
gd1981-10-13d1t03.flac:fadbf402ef6ac9b336e57f200e2fc246
gd1981-10-13d1t04.flac:d6686ac9ec42b74be30a9db7d4558308
gd1981-10-13d1t05.flac:0cd54b3f825d89ad630ae32b80435828
gd1981-10-13d1t06.flac:b1e70002a4381d2a882a4c803be7297b
gd1981-10-13d1t07.flac:9156e2590a60ced3171b1affc62035f1
gd1981-10-13d1t08.flac:cd047921f7461c59efa8f348ab5c164a
gd1981-10-13d1t09.flac:5efd3c536221f7f4ca13f4bcb5261e4e
gd1981-10-13d1t10.flac:d3959d3bbb5e317c1e0efb36e45ec2ae
gd1981-10-13d1t11.flac:ade70d1eccd2d4e3a25d1d8b43a38165
gd1981-10-13d2t01.flac:70c50198d1e3abd281f8ab9e834f4086
gd1981-10-13d2t02.flac:6100766759a91f8dbdee991809d4eadf
gd1981-10-13d2t03.flac:4a9ff80b62e710cad1c8f5e8aa96e89b
gd1981-10-13d2t04.flac:47533c6934365794a56454ed67046c1e
gd1981-10-13d2t05.flac:dc5849307f7c2c13b07b4742ac4ced05
gd1981-10-13d2t06.flac:91e3c154467874c1255aa85e100c132c
gd1981-10-13d2t07.flac:9ea796c3c911ca15fd0c3db8ef89897b
gd1981-10-13d2t08.flac:e54325a5f8a65585864ff2e39c939374
gd1981-10-13d2t09.flac:0c844a97485dea0189c43ec9e9574126
gd1981-10-13d2t10.flac:9b3d53dfcb814ad391dadc091411e2c5
gd1981-10-13d2t11.flac:7c611ab066806fc6be69bad63be7d164
gd1981-10-13d2t12.flac:b3896078d3970f7ede72398f8c41873a
flac-md5
218ed3f7a80513e0732d93276fd75498 *gd1981-10-13d1t01.flac
949376035e10a7d3d87bde74d0f42f95 *gd1981-10-13d1t02.flac
6d6fd4df9eb2c6bcbcd8f216c6477b29 *gd1981-10-13d1t03.flac
2fa1b1004cbf07e92a606064d9a8d6d6 *gd1981-10-13d1t04.flac
944e8f9f5b94b476fe67e5a6c4cf1d68 *gd1981-10-13d1t05.flac
a3e7b8c323dcd16f1c7334c57e4a0ca3 *gd1981-10-13d1t06.flac
caea6171efaeb84f4fbb3b066ce141a0 *gd1981-10-13d1t07.flac
25bd0a86f944b0c17bbeb53e5c2d1e9b *gd1981-10-13d1t08.flac
faf2052764d91d42513e0ed7b9ede6fd *gd1981-10-13d1t09.flac
1bf71a720bf6b4a42befb8df77275737 *gd1981-10-13d1t10.flac
18f3d9f794ad55e998d654763d3342ea *gd1981-10-13d1t11.flac
c17f44451a77a011bccb6f99b82c13d6 *gd1981-10-13d2t01.flac
3221c722c513c66c08fee0c091cdd6d6 *gd1981-10-13d2t02.flac
36eadbf6d9b4e79fbedf0f41cdfc23f0 *gd1981-10-13d2t03.flac
72c07976bfd85ba5e9aaaa4cd4b2d75d *gd1981-10-13d2t04.flac
41c7e5eec0023e3ca256440e14254330 *gd1981-10-13d2t05.flac
ddedee80878c21303f37884fa15e9036 *gd1981-10-13d2t06.flac
ff2eb1cd807610d22b397b8042bc3265 *gd1981-10-13d2t07.flac
b9344813a0509737a31486b17e8c75b0 *gd1981-10-13d2t08.flac
a2f92c74a7c92a3ee8ba30cbee356d4a *gd1981-10-13d2t09.flac
49b0bc4ecd2ddb0d352309d6a9e8f84f *gd1981-10-13d2t10.flac
470502ce24fd589327397345f842485f *gd1981-10-13d2t11.flac
515a10050fbcb44e6fde42cb3425420a *gd1981-10-13d2t12.flac

Comments
Add Comment
Other Sources (comments)
AUD > MR > DAT > CD no mic... (0) SBD> ?> C> C> WAV> SHN; via... (3) flac16; Recording... (0)
Date User Comment