Browse Collections Artists Sources   Search Dates

Add Show    List Management    Help


Grateful Dead 06/14/91
Robert F. Kennedy Stadium, Washington, DC
Comments Add Comment    Source Collectors    Add to Collection    Add to Want List    History
Source # 128575 Other Sources
Entered by Gary Field
Checksums ffp , flac-md5
Disc Counts 0 / 0
Media Size Compressed: 1.12 GB (1205466709 bytes)
Uncompressed: 1.71 GB (1833688332 bytes)
Date Circulated
Date Added
06/04/2014
05/04/2014
Source Summary flac16; 2 Source Matrix by Dusborne; Soundboard (shnid:016816) Lineage: DAT> CD> SHN> Peak (track recutting and level adjustments)> SHN and Audience (shnid:094371) Sennheiser ME-80's>Technics SV-MD1 DAT MASTER>Tascam DA-30MKII>Sound Devices 702>Soundforge 9 (Fades & Sample Rate Conversion)>CDWAV>FLAC Recorded & Transferred By Keith Litzenberger 
  Archive
Source Information - Download Text | Download Zip
Grateful Dead
June 14, 1991
RFK Stadium
Washington,DC

2 Source Matrix

Soundboard (shnid:016816)
--------------------------------------------------------------------------------
gd91-06-14.016816.sbd.braverman.sbeok.t-flac16

Source: SBD
Lineage: DAT> CD> SHN> Peak (track recutting and level adjustments)> SHN

Known issues:
Very clean recording. Drums and space are seamless and could be reassembled if
desired. There is a possibility of a cassette generation somewhere, as the
space>Stella Blue transition had overlap that I removed.

This is not sourced from the Vault video release. These disks came to me at
least a year before that release, and both sets have much longer tuning
segments at the beginning than the VFTV release.

Audience (shnid:094371)
-------------------------------------------------------------------------------
gd91-06-14.094371.sennME80.wklitz.t-flac16

Sennheiser ME-80's>Technics SV-MD1

DAT MASTER>Tascam DA-30MKII>Sound Devices 702>Soundforge 9
(Fades & Sample Rate Conversion)>CDWAV>FLAC

Recorded & Transferred By Keith Litzenberger
--------------------------------------------------------------------------------
---Thank you Peter Braverman for supplying the SBD.
---Thank you Keith Litzenberger for recording the show.
---Thank you XJ32 for the art work.
---Thank you Germain for your advice, encouragement, guidance and seeding.

Matrix by dusborne

04-21-2014
-------------------------------------------------------------------------------

Set 1

101 - gd91-06-14s1t01 - Tuning
102 - gd91-06-14s1t02 - Cold Rain & Snow
103 - gd91-06-14s1t03 - Wang Dang Doodle
104 - gd91-06-14s1t04 - Jack-a-roe
105 - gd91-06-14s1t05 - Big River ->
106 - gd91-06-14s1t06 - Maggie's Farm
107 - gd91-06-14s1t07 - Row Jimmy
108 - gd91-06-14s1t08 - Black-Throated Wind
109 - gd91-06-14s1t09 - Tennessee Jed
110 - gd91-06-14s1t10 - The Music Never Stopped

Set 2

201 - gd91-06-14s2t01 - Tuning
202 - gd91-06-14s2t02 - Help on the Way ->
203 - gd91-06-14s2t03 - Slipknot! ->
204 - gd91-06-14s2t04 - Franklin's Tower
205 - gd91-06-14s2t05 - Estimated Prophet ->
206 - gd91-06-14s2t06 - Dark Star ->
207 - gd91-06-14s2t07 - Drums ->
208 - gd91-06-14s2t08 - Space ->
209 - gd91-06-14s2t09 - Stella Blue ->
210 - gd91-06-14s2t10 - Turn On Your Lovelight

Encore
211 - gd91-06-14s2t11 - It's All Over Now, Baby Blue
--------------------------------------------------------------------------------

Tagging notes:
Show information is embedded within the header
of each flac file. It will display on any player
capable of directly playing flac files.
If converted to wav during processing, all tags
will be stripped, however audio data will remain
unaffected. If you must transcode to a lossy format,
do so directly Flac > Lossy.
Use ffp to validate audio integrity.
Md5 values will change if tagging is altered.
Dave Usborne 04-21-2014
--------------------------------------------------------------------------------

    length     expanded size    cdr  WAVE problems  fmt   ratio  filename
     1:28.21       15572636 B   ---   --   ---xx   flac  0.5020  gd91-06-14s1t01.flac
     6:49.59       72286412 B   ---   --   ---xx   flac  0.6963  gd91-06-14s1t02.flac
     7:08.63       75647420 B   ---   --   ---xx   flac  0.6577  gd91-06-14s1t03.flac
     7:08.29       75567452 B   ---   --   ---xx   flac  0.6406  gd91-06-14s1t04.flac
     5:42.43       60429980 B   ---   --   ---xx   flac  0.6835  gd91-06-14s1t05.flac
     9:16.11       98104316 B   ---   --   ---xx   flac  0.6481  gd91-06-14s1t06.flac
    11:49.74      125241692 B   ---   --   ---xx   flac  0.6497  gd91-06-14s1t07.flac
     7:41.27       81383948 B   ---   --   ---xx   flac  0.6542  gd91-06-14s1t08.flac
     7:48.54       82682252 B   ---   --   ---xx   flac  0.6917  gd91-06-14s1t09.flac
     9:04.34       96041612 B   ---   --   ---xx   flac  0.6910  gd91-06-14s1t10.flac
     2:38.70       28035884 B   ---   --   ---xx   flac  0.4896  gd91-06-14s2t01.flac
     4:09.17       43963628 B   ---   --   ---xx   flac  0.6955  gd91-06-14s2t02.flac
     8:05.55       85683404 B   ---   --   ---xx   flac  0.6856  gd91-06-14s2t03.flac
    12:27.04      131780252 B   ---   --   ---xx   flac  0.6940  gd91-06-14s2t04.flac
    13:38.42      144394028 B   ---   --   ---xx   flac  0.6689  gd91-06-14s2t05.flac
    10:57.52      116017148 B   ---   --   ---xx   flac  0.6593  gd91-06-14s2t06.flac
     9:40.24      102368492 B   ---   --   ---xx   flac  0.6177  gd91-06-14s2t07.flac
    10:07.05      107086604 B   ---   --   ---xx   flac  0.6124  gd91-06-14s2t08.flac
     9:28.37      100282268 B   ---   --   ---xx   flac  0.6527  gd91-06-14s2t09.flac
    10:39.16      112757276 B   ---   --   ---xx   flac  0.6419  gd91-06-14s2t10.flac
     7:24.17       78361628 B   ---   --   ---xx   flac  0.6618  gd91-06-14s2t11.flac
   173:15.04     1833688332 B                            0.6574  (21 files)



Show Checksums
ffp
gd91-06-14s1t01.flac:1fdff01cb725163087776cd049c2c706
gd91-06-14s1t02.flac:8d6400858281bef213e77f0457fe8897
gd91-06-14s1t03.flac:f03aa8f1c8f3d0264a5c1cf6a79865ff
gd91-06-14s1t04.flac:91b6d92a10c37318f9bf7bdf9793d86b
gd91-06-14s1t05.flac:d9aeab47ff7b40286d98ca9c96b2273b
gd91-06-14s1t06.flac:a192aa5a0606f6f76032131b7beec9aa
gd91-06-14s1t07.flac:52c498952ced0decac7ec66d07f8cd1d
gd91-06-14s1t08.flac:811832787e08ad8a5ac4bbc3e810852d
gd91-06-14s1t09.flac:27669e14801aeb2484f1733a2d200258
gd91-06-14s1t10.flac:212471403d8f5fa35d428b65e8838b93
gd91-06-14s2t01.flac:7d850abc172c569e8a5571a8e9459297
gd91-06-14s2t02.flac:666084fc9e0618731c5ef233cd450547
gd91-06-14s2t03.flac:ac5e66cbc64d19cad8035c4c9200c92b
gd91-06-14s2t04.flac:b3aed6b4149e4cfe349ca94cb884a004
gd91-06-14s2t05.flac:302429feb4a83f625e205046106eee08
gd91-06-14s2t06.flac:605c1490b7ccbf9c4e6814edae89acbc
gd91-06-14s2t07.flac:7987f1ccb8cc62f93b3276c8eb7f9f3d
gd91-06-14s2t08.flac:ce1dbb7c463fe926bff58d58389d88c4
gd91-06-14s2t09.flac:75b7504944f421bd0bbe58b650d25e24
gd91-06-14s2t10.flac:c5cf1b281dc8d4203a04ff3b9ccdcf3e
gd91-06-14s2t11.flac:011f69ac8398c12356848a3f0efbf077
flac-md5
3a1a325c3d67c229b1048ad8b426d02f *gd91-06-14s1t01.flac
1a93c7e1b986d7b881e5ba622c3e7af9 *gd91-06-14s1t02.flac
c85aa6f6cb100ec9a7a5a972322d6bf0 *gd91-06-14s1t03.flac
02a384338942fb65c1b710a41a0c0490 *gd91-06-14s1t04.flac
ca84553dd47ec6d4b2fdccce8e99560f *gd91-06-14s1t05.flac
a2ec28b1ef50bee08f6e579761407d93 *gd91-06-14s1t06.flac
25420dea0261b09274231e1f219b011c *gd91-06-14s1t07.flac
53d69dec6ef14482946b704e69382e08 *gd91-06-14s1t08.flac
629c5fcdd4850976779b5c8bf3427108 *gd91-06-14s1t09.flac
c4b4327b6d2e9ab9429099378d23eee7 *gd91-06-14s1t10.flac
3de36e78316e2e6a540f2548e8a49e82 *gd91-06-14s2t01.flac
7d292d330f9b699e1e52a510e8679a00 *gd91-06-14s2t02.flac
4308380ca69f3fc30647a54d0a791a1e *gd91-06-14s2t03.flac
72d69869f309e91137690a12a6ad9456 *gd91-06-14s2t04.flac
7e74115ebc9083dbad7b28842c3e8ff2 *gd91-06-14s2t05.flac
5f3d7b0eff3b326e51eae837b3075650 *gd91-06-14s2t06.flac
2d4764a6d268319777b14384c93de03d *gd91-06-14s2t07.flac
9bc43de234e131e9ed8127cacf536d01 *gd91-06-14s2t08.flac
60978c1ca8204de1394c7db3912d9e0a *gd91-06-14s2t09.flac
a47e9cc9d00d6fd3f74f950533e0c669 *gd91-06-14s2t10.flac
139e1a85623794cab9ceb539e723941e *gd91-06-14s2t11.flac

Comments
Add Comment
Other Sources (comments)
SBD > DAT> CD> SHN> Peak... (2) flac16; Sennheiser... (0) flac16; Matrix -... (0) flac16; Source:... (0) flac16; (original... (0) flac16; Matrix 2... (0) DTS-Audio-CD 5.1... (0) flac16/48kHz; 5.1... (0)
Date User Comment