Browse Collections Artists Sources   Search Dates

Add Show    List Management    Help


Grateful Dead 03/06/81
Stanley Theater, Pittsburgh, PA
Comments Add Comment    Source Collectors    Add to Collection    Add to Want List    History
Source # 128579 Other Sources
Entered by Gary Field
Checksums orig-ffp , flac-md5 , ffp , orig-md5
Disc Counts 0 / 0
Media Size Compressed: 989.2 MB (1037248105 bytes)
Uncompressed: 1.71 GB (1839744776 bytes)
Date Circulated
Date Added
04/04/2014
05/04/2014
Source Summary flac16; Recording by Jim Wise: Master Audience Cassette; 2 Sennheiser 421s> Sony D-5 Center Loge; Transfer and FLAC encoding by David Minches: April 2014; Dolby B decoded Master played back on Nakamichi Dragon > Korg MR-1000(DSF [1-bit 5.6448 MHz Stereo]) Korg AudioGate > WAV [24/96] > Adobe Audition 3.0> FLAC encoding 
  Archive
Source Information - Download Text | Download Zip
Grateful Dead
March 6, 1981
Stanley Theater
Pittsburgh, PA

Recording by Jim Wise:
Master Audience Cassette; 2 Sennheiser 421s> Sony D-5 Center Loge
Transfer and FLAC encoding by David Minches: April 2014
Dolby B decoded Master played back on Nakamichi Dragon > Korg MR-1000(DSF [1-bit 5.6448 MHz Stereo])
Korg AudioGate > WAV [24/96] > Adobe Audition 3.0> FLAC encoding
____________________________________________________________________________________________________

--Set 1--
s1t01 - Tuning
s1t02 - Jack Straw
s1t03 - Peggy-O
s1t04 - Cassidy
s1t05 - They Love Each Other
s1t06 - El Paso
s1t07 - Row Jimmy ->
s1t08 - Little Red Rooster
s1t09 - Brown-Eyed Women
s1t10 - Let It Grow->
s1t11 - Deal

--Set 2--
s2t01 - Tuning
s2t02 - Samson and Delilah
s2t03 - It Must Have Been the Roses
s2t04 - Estimated Prophet->
s2t05 - Franklin's Tower ->
s2t06 - Drums ->
s2t07 - Space ->
s2t08 - The Other One ->
s2t09 - Stella Blue ->
s2t10 - Sugar Magnolia

--Encore--
s2t11 - Don't Ease Me In
____________________________________________________________________________________________________

Note:
Deal will fit on the end of disc 1 with about an 18 second overburn.

Tagging notes:
Show information is embedded within the headerof each flac file.
It will display on any player capable of directly playing flac files.
If converted to wav during processing, all tags will be stripped,
however audio data will remain unaffected.
If you must transcode to a lossy format, do so directly Flac > Lossy.
Use ffp to validate audio integrity.
Md5 values will change if tagging is altered.
B. Proctor 5/04/2014
_____________________________________________________________________________________

    length     expanded size    cdr  WAVE problems  fmt   ratio  filename
     0:34.27        6061148 B   ---   --   ---xx   flac  0.5301  d01t01 - Tuning.flac
     5:46.19       61079132 B   ---   --   ---xx   flac  0.5818  d01t02 - Jack Straw.flac
     8:08.66       86238476 B   ---   --   ---xx   flac  0.5348  d01t03 - Peggy-O.flac
     5:37.25       59505644 B   ---   --   ---xx   flac  0.5703  d01t04 - Cassidy.flac
     6:44.51       71385596 B   ---   --   ---xx   flac  0.5472  d01t05 - They Love Each Other.flac
     6:27.63       68415020 B   ---   --   ---xx   flac  0.5525  d01t06 - El Paso.flac
    10:43.56      113556956 B   ---   --   ---xx   flac  0.5516  d01t07 - Row Jimmy.flac
     9:38.16      101996876 B   ---   --   ---xx   flac  0.5896  d01t08 - Little Red Rooster.flac
     6:37.45       70136684 B   ---   --   ---xx   flac  0.5638  d01t09 - Brown-Eyed Women.flac
    12:00.50      127125644 B   ---   --   ---xx   flac  0.5972  d01t10 - Let It Grow.flac
     7:58.25       84378044 B   ---   --   ---xx   flac  0.6004  d01t11 - Deal.flac
     2:27.59       26069612 B   ---   --   ---xx   flac  0.4946  d02t01 - Tuning.flac
     8:26.18       89300780 B   ---   --   ---xx   flac  0.5969  d02t02 - Samson and Delilah.flac
     7:46.13       82233020 B   ---   --   ---xx   flac  0.5313  d02t03 - It Must Have Been The Roses.flac
    11:27.44      121290332 B   ---   --   ---xx   flac  0.5871  d02t04 - Estimated Prophet.flac
    15:04.50      159583244 B   ---   --   ---xx   flac  0.5892  d02t05 - Franklin's Tower.flac
     6:48.51       72091196 B   ---   --   ---xx   flac  0.5191  d02t06 - Drums.flac
     7:38.64       80941772 B   ---   --   ---xx   flac  0.4775  d02t07 - Space.flac
    11:14.57      119027708 B   ---   --   ---xx   flac  0.5553  d02t08 - The Other One.flac
    10:14.29      108377852 B   ---   --   ---xx   flac  0.5167  d02t09 - Stella Blue.flac
     8:58.07       94919708 B   ---   --   ---xx   flac  0.6090  d02t10 - Sugar Magnolia.flac
     3:24.19       36030332 B   ---   --   ---xx   flac  0.5979  d02t11 - Don't East Me In.flac
   173:49.29     1839744776 B                            0.5638  (22 files)





Show Checksums
orig-ffp
d01t01 - Tuning.flac:426f62a219726c421c0521048ed508ef
d01t02 - Jack Straw.flac:d902440ade3fbc1f60a52545dd613886
d01t03 - Peggy-O.flac:2a5d0ec966cf37c7b5bdf64b1d351e21
d01t04 - Cassidy.flac:267859acc2a780a81122b94370682c30
d01t05 - They Love Each Other.flac:ece4366d83ee619aa91bfb02fa2db9b3
d01t06 - El Paso.flac:a7fc3d1c0414a9a1bf02b685949c6b78
d01t07 - Row Jimmy.flac:f32975c1358b3d72024e6d96b88e1955
d01t08 - Little Red Rooster.flac:a4f223a981901ebe3dbc6c46dd6f37a8
d01t09 - Brown-Eyed Women.flac:68a13375221c6a5888f62fe8ba3fdf23
d01t10 - Let It Grow.flac:9b45500f288afc79b2c29c4f424b9250
d01t11 - Deal.flac:58ed13acf17438d567569923d04f203c
d02t01 - Tuning.flac:1137a27e14c20895af23f86edacecccb
d02t02 - Samson and Delilah.flac:5b16c24faa6fffd86770849002e9b9a0
d02t03 - It Must Have Been The Roses.flac:1fddda5fe7196c4f3351f9c74339906f
d02t04 - Estimated Prophet.flac:0d97b3928e5823d3b56cd996570345e0
d02t05 - Franklin's Tower.flac:6b62a3b984684f5517e1c2ee1ea91bd4
d02t06 - Drums.flac:fd143074c2bcdff104df2b5764e6714a
d02t07 - Space.flac:2a40b6faa19e58369250905cb86eb02f
d02t08 - The Other One.flac:e2d6713c1e7a5eeadd10ad36fcf999ea
d02t09 - Stella Blue.flac:ae6134c44b0c21721bbd24a38630e5c1
d02t10 - Sugar Magnolia.flac:e2a5ccb28f9a207efdef2a9a5716a584
d02t11 - Don't East Me In.flac:35154bee0ce1b9a0bf7121049ab0dbf5
flac-md5
574c076fd6c2a7bc52ce6812e8d0b49b *d01t01.flac
cb2f530c9118a89ea9f66633ed0031a4 *d01t02.flac
52b93f209691ebb3b14c8aca47aa1acb *d01t03.flac
7f36fe9b00cc6c22df5e1ee5330144fc *d01t04.flac
70f0eb608de77ff1bd60ed86480d979a *d01t05.flac
863dff669b388c4413ead8b9ae7dced5 *d01t06.flac
4bb28c1083e60b4ffc0fc08e575bba53 *d01t07.flac
75206c46431828d0c27dcf64978f0e8a *d01t08.flac
b155a885e28ec7e00173cdd52b944b37 *d01t09.flac
df3f001ca89120138f76b2d93c014acb *d01t10.flac
59faa8b2e06dee0a8b1128a6b07b8acf *d01t11.flac
2d0e59458112eb9711af6902984ec9da *d02t01.flac
d3d15bacd6b3704d2afb03d05c6b0073 *d02t02.flac
d9cc5fddd42f22b19b0070c4301daf77 *d02t03.flac
3d43aa714626bc45aa95c0225e7e64a8 *d02t04.flac
8017ba57627ad828f4b0b1542bd6249b *d02t05.flac
d742c7ccba3415eb767183ae6a9003b1 *d02t06.flac
fb7aa0de02103fe1c7aa6d739caf9d09 *d02t07.flac
015b8f64ebad6016bf837ee10ae532f4 *d02t08.flac
34016b2ee9df861cc7cc6bf69b8dffd8 *d02t09.flac
954269f29fbf3df32e720a228f5c3559 *d02t10.flac
21775d12de14e536a5c2c7c1c3d96108 *d02t11.flac
ffp
d01t01.flac:426f62a219726c421c0521048ed508ef
d01t02.flac:d902440ade3fbc1f60a52545dd613886
d01t03.flac:2a5d0ec966cf37c7b5bdf64b1d351e21
d01t04.flac:267859acc2a780a81122b94370682c30
d01t05.flac:ece4366d83ee619aa91bfb02fa2db9b3
d01t06.flac:a7fc3d1c0414a9a1bf02b685949c6b78
d01t07.flac:f32975c1358b3d72024e6d96b88e1955
d01t08.flac:a4f223a981901ebe3dbc6c46dd6f37a8
d01t09.flac:68a13375221c6a5888f62fe8ba3fdf23
d01t10.flac:9b45500f288afc79b2c29c4f424b9250
d01t11.flac:58ed13acf17438d567569923d04f203c
d02t01.flac:1137a27e14c20895af23f86edacecccb
d02t02.flac:5b16c24faa6fffd86770849002e9b9a0
d02t03.flac:1fddda5fe7196c4f3351f9c74339906f
d02t04.flac:0d97b3928e5823d3b56cd996570345e0
d02t05.flac:6b62a3b984684f5517e1c2ee1ea91bd4
d02t06.flac:fd143074c2bcdff104df2b5764e6714a
d02t07.flac:2a40b6faa19e58369250905cb86eb02f
d02t08.flac:e2d6713c1e7a5eeadd10ad36fcf999ea
d02t09.flac:ae6134c44b0c21721bbd24a38630e5c1
d02t10.flac:e2a5ccb28f9a207efdef2a9a5716a584
d02t11.flac:35154bee0ce1b9a0bf7121049ab0dbf5
orig-md5
574c076fd6c2a7bc52ce6812e8d0b49b *d01t01 - Tuning.flac
cb2f530c9118a89ea9f66633ed0031a4 *d01t02 - Jack Straw.flac
52b93f209691ebb3b14c8aca47aa1acb *d01t03 - Peggy-O.flac
7f36fe9b00cc6c22df5e1ee5330144fc *d01t04 - Cassidy.flac
70f0eb608de77ff1bd60ed86480d979a *d01t05 - They Love Each Other.flac
863dff669b388c4413ead8b9ae7dced5 *d01t06 - El Paso.flac
4bb28c1083e60b4ffc0fc08e575bba53 *d01t07 - Row Jimmy.flac
75206c46431828d0c27dcf64978f0e8a *d01t08 - Little Red Rooster.flac
b155a885e28ec7e00173cdd52b944b37 *d01t09 - Brown-Eyed Women.flac
df3f001ca89120138f76b2d93c014acb *d01t10 - Let It Grow.flac
59faa8b2e06dee0a8b1128a6b07b8acf *d01t11 - Deal.flac
2d0e59458112eb9711af6902984ec9da *d02t01 - Tuning.flac
d3d15bacd6b3704d2afb03d05c6b0073 *d02t02 - Samson and Delilah.flac
d9cc5fddd42f22b19b0070c4301daf77 *d02t03 - It Must Have Been The Roses.flac
3d43aa714626bc45aa95c0225e7e64a8 *d02t04 - Estimated Prophet.flac
8017ba57627ad828f4b0b1542bd6249b *d02t05 - Franklin's Tower.flac
d742c7ccba3415eb767183ae6a9003b1 *d02t06 - Drums.flac
fb7aa0de02103fe1c7aa6d739caf9d09 *d02t07 - Space.flac
015b8f64ebad6016bf837ee10ae532f4 *d02t08 - The Other One.flac
34016b2ee9df861cc7cc6bf69b8dffd8 *d02t09 - Stella Blue.flac
954269f29fbf3df32e720a228f5c3559 *d02t10 - Sugar Magnolia.flac
21775d12de14e536a5c2c7c1c3d96108 *d02t11 - Don't East Me In.flac

Comments
Add Comment
Other Sources (comments)
Audience recording by Jim... (0) Set 2 soundboard, minus... (1) flac16; Recording by... (0) flac24; Recording by... (0) flac16; Recorded By... (0) flac16; Source Info:... (0) flac24; Source Info:... (0)
Date User Comment