Browse Collections Artists Sources   Search Dates

Add Show    List Management    Help


Grateful Dead 10/12/81
Olympia Halle, Munich, Germany
Comments Add Comment    Source Collectors    Add to Collection    Add to Want List    History
Source # 128591 Other Sources
Entered by Matt Vernon
Checksums ffp , flac-md5
Disc Counts 2 / 3
Media Size Compressed: 935.27 MB (980703948 bytes)
Date Circulated
Date Added
05/05/2014
05/05/2014
Source Summary flac16; Recording and transfer details: SBD > MC > C(Maxell XL II) C > Pioneer deck > wav > Sound Forge 10 > TLH > flac 
  Archive
Source Information - Download Text | Download Zip
THE GRATEFUL DEAD
Olympiahalle
Munich, Germany
October 12, 1981

Recording and transfer details:
SBD > MC > C(Maxell XL II)
C  > Pioneer deck > wav > Sound Forge 10 > TLH > flac

Got this and several other 1981 shows in a mail trade from
a Deadhead in Germany about fifteen years ago. All are on
Maxell XL II 90 minute cassettes.
This is an upgrade of shnid 7916 SBD version.

Transferred, tracked and mastered by Bill Guarneri. May 4, 2014

Jerry Garcia - guitar, vocals
Bob Weir - guitar, vocals
Phil Lesh - bass
Brent Mydland - keyboards, vocals
Bill Kruetzman - drums
Mickey Hart - drums, percussion

Set 1 (disc 1)
01. Jack Straw
02. Candyman
03. Little Red Rooster
04. Cumberland Blues
05. Beat It On Down The Line
06. Ramble On Rose
07. Mama Tried >
08. Mexicali Blues
09. Althea
10. Passenger
11. China Cat Sunflower >
12. I Know You Rider

Set 2 (disc 2)
01. Bertha >
02. Sampson & Delilah
03. Ship Of Fools >
04. Estimated Prophet >
05. Goin' Down The Road Feelin' Bad
06. Good Times

Set 2 (disc 3)
01. Drums > Space >
02. Not Fade Away >
03. Stella Blue >
04. Around And Around >
05. Good Lovin'
Encore:
06. U.S. Blues *

*Encore is from an unknown aud source

length     expanded size    cdr  WAVE problems  fmt   ratio  filename
     5:58.69       63313532 B   ---   --   ---xx   flac  0.5366  gd1981-10-12d1t01.flac
     6:30.27       68859548 B   ---   --   ---xx   flac  0.5370  gd1981-10-12d1t02.flac
     8:19.42       88122428 B   ---   --   ---xx   flac  0.5496  gd1981-10-12d1t03.flac
     5:14.08       55408460 B   ---   --   ---xx   flac  0.5512  gd1981-10-12d1t04.flac
     3:04.60       32598764 B   ---   --   ---xx   flac  0.5304  gd1981-10-12d1t05.flac
     7:49.32       82806908 B   ---   --   ---xx   flac  0.4869  gd1981-10-12d1t06.flac
     2:34.24       27222092 B   ---   --   ---xx   flac  0.5084  gd1981-10-12d1t07.flac
     3:28.04       36700652 B   ---   --   ---xx   flac  0.5299  gd1981-10-12d1t08.flac
     9:27.72      100188188 B   ---   --   ---xx   flac  0.5387  gd1981-10-12d1t09.flac
     5:30.28       58277900 B   ---   --   ---xx   flac  0.5523  gd1981-10-12d1t10.flac
     8:03.42       85300028 B   ---   --   ---xx   flac  0.5421  gd1981-10-12d1t11.flac
     5:45.45       60963884 B   ---   --   ---xx   flac  0.5415  gd1981-10-12d1t12.flac
     6:54.54       73156652 B   ---   --   ---xx   flac  0.5458  gd1981-10-12d2t01.flac
     7:19.21       77489036 B   ---   --   ---xx   flac  0.5430  gd1981-10-12d2t02.flac
     8:40.06       91742156 B   ---   --   ---xx   flac  0.4898  gd1981-10-12d2t03.flac
    15:51.09      167777612 B   ---   --   ---xx   flac  0.4931  gd1981-10-12d2t04.flac
     8:27.36       89519516 B   ---   --   ---xx   flac  0.5219  gd1981-10-12d2t05.flac
     9:13.35       97631564 B   ---   --   ---xx   flac  0.4905  gd1981-10-12d2t06.flac
    17:39.24      186864092 B   ---   --   ---xx   flac  0.4385  gd1981-10-12d3t01.flac
     6:06.17       64602428 B   ---   --   ---xx   flac  0.4613  gd1981-10-12d3t02.flac
    11:35.41      122694476 B   ---   --   ---xx   flac  0.4315  gd1981-10-12d3t03.flac
     3:43.60       39478364 B   ---   --   ---xx   flac  0.4978  gd1981-10-12d3t04.flac
     8:57.72       94896188 B   ---   --   ---xx   flac  0.4980  gd1981-10-12d3t05.flac
     6:55.52       73328348 B   ---   --   ---xx   flac  0.5261  gd1981-10-12d3t06.flac
   183:11.55     1938942816 B                            0.5058  (24 files)



Show Checksums
ffp
gd1981-10-12d1t01.flac:c8f17581435b57982dc73f5d4e8ff80f
gd1981-10-12d1t02.flac:72a37802e1eddf38dbb4283a848cd5af
gd1981-10-12d1t03.flac:21f45e7a3522c9026cdc98bf382a0a35
gd1981-10-12d1t04.flac:8798b43edce8a7725dbefe3141f498b2
gd1981-10-12d1t05.flac:b744f11d6965903240db8cc33ff4f295
gd1981-10-12d1t06.flac:6fb0f1687455011531cf9270f2b58a89
gd1981-10-12d1t07.flac:8198545723a4db1598a2bba264818b6b
gd1981-10-12d1t08.flac:c03b57146cb2066135a3da10a2f40d9f
gd1981-10-12d1t09.flac:281170c183678a32037c0ca61b6d18ea
gd1981-10-12d1t10.flac:d326dfd71713b2f7a43cd08cf5584093
gd1981-10-12d1t11.flac:9288a5047648dfb9774114ba593049b4
gd1981-10-12d1t12.flac:774c1a1f51cc333a948c00102a109a19
gd1981-10-12d2t01.flac:b6c8bb3088b79123e2a2691bb30f3a67
gd1981-10-12d2t02.flac:5581172c3d95b29eb1fb6b259187a64c
gd1981-10-12d2t03.flac:861238db6f628726ea6fac61cac5c680
gd1981-10-12d2t04.flac:6adaf1aa24c0d3648d53bfbe550a2fdc
gd1981-10-12d2t05.flac:fbf08de0a6beca1b070dd456bdc8438a
gd1981-10-12d2t06.flac:cf0f98b75d2fb9504c702f9cd2b28f29
gd1981-10-12d3t01.flac:93344e1169b04a3d6676e21846820496
gd1981-10-12d3t02.flac:fcdef6f56eb43fc034b64f2f7a650b91
gd1981-10-12d3t03.flac:043ea8589fe51f8f4a55881805da7592
gd1981-10-12d3t04.flac:bea95cc05868d715b85bce1177a23efe
gd1981-10-12d3t05.flac:4aec46adb8e5cd51bd9ddac1c20df06d
gd1981-10-12d3t06.flac:73f0119224d00b874eb27bf964029a4a
flac-md5
ba3a1983119b4bb9d049b8ee4f867409 *gd1981-10-12d1t01.flac
2a376d16f986effaa0da59499ec60bb5 *gd1981-10-12d1t02.flac
add3adcddd2ced45dc096f4e4e1596e2 *gd1981-10-12d1t03.flac
6056cd4c07f65fb4aee068b1d9f9002f *gd1981-10-12d1t04.flac
3c1a05cd845751294319bb0338c427dc *gd1981-10-12d1t05.flac
6fbf6cf808a5994323b403734af31f48 *gd1981-10-12d1t06.flac
ac29141ab4d1192ee6dfc578d8bec461 *gd1981-10-12d1t07.flac
5743b338990b04ae56210468d39ac698 *gd1981-10-12d1t08.flac
c20317c03eb064abe60f158dcebf8c2b *gd1981-10-12d1t09.flac
0f419e9e55d03b3c722184fa0a53cdec *gd1981-10-12d1t10.flac
110ad2192d9056b9ab5eba544717dc5f *gd1981-10-12d1t11.flac
9165fc7ccda0a3e671868a176459f63d *gd1981-10-12d1t12.flac
ae7e759f70aea23353b0acedfbf05421 *gd1981-10-12d2t01.flac
2578fc33d54c3f22addc5c3c62a02407 *gd1981-10-12d2t02.flac
b1d17b6ea311dbb6ecdbbb46423da0ae *gd1981-10-12d2t03.flac
317ee29193b809a178c584a528a22928 *gd1981-10-12d2t04.flac
67bd81203a8a3fe898cf24aa0ca05ed5 *gd1981-10-12d2t05.flac
76bd90ef29593ff858dc45505d85bd6a *gd1981-10-12d2t06.flac
1367c2a2f59403d9475b27a7227393c1 *gd1981-10-12d3t01.flac
c11362da4aa4aa48c01209400c8fdc54 *gd1981-10-12d3t02.flac
54c51a8e59387819241b28737787fc7a *gd1981-10-12d3t03.flac
7e382dad7f14bad906acc18ac9691ea9 *gd1981-10-12d3t04.flac
61e75743aee543c2e27c09879ce1f3c0 *gd1981-10-12d3t05.flac
2ef750a9266e081dcb83ac78e523b375 *gd1981-10-12d3t06.flac

Comments
Add Comment
Other Sources (comments)
sbd > mc > dat > cd > eac >... (1) SBD: MC > CASS > DAT > CDR;... (0) Recording by Uwe Dehnel.... (0) flac16; Recording... (0) flac16/48kHz; Master... (1)
Date User Comment
09/03/2018 skbarchives This sounds heavily EQ'd/processed, possible digital noise reduction.