Browse Collections Artists Sources   Search Dates

Add Show    List Management    Help


Grateful Dead 10/04/81
Rainbow Theater, London, England
Comments Add Comment    Source Collectors    Add to Collection    Add to Want List    History
Source # 128620 Other Sources
Entered by Matt Vernon
Checksums flac-md5 , ffp
Disc Counts 2 / 3
Media Size
Date Circulated
Date Added
05/09/2014
05/09/2014
Source Summary flac16; Sbd > CM? > C > C; C > Pioneer deck > wav > Sound Forge 10 > TLH > Flac; Could be CM > C. This is one gen (or more) upgrade of shnid 12887 
  Archive
Source Information - Download Text | Download Zip
THE GRATEFUL DEAD
The Rainbow Theatre
London, England
October 4, 1981

Recording and transfer info.
Sbd > CM? > C > C
C > Pioneer deck > wav > Sound Forge 10 > TLH > Flac
Could be CM > C. This is one gen (or more) upgrade of shnid 12887

Got this and several other 1981 shows in a mail trade from
a Deadhead in Germany about fifteen years ago. All are on
Maxell XL II 90 minute cassettes.

Transferred, tracked and mastered by Bill Guarneri, May 9, 2014

Fixes;
Disc 1, track 1 could be from another source
Disc 1, track 8; small unknown aud patch at about 2:48
Disc 2, track 1; one second unknown aud patch at 0:03
Disc 2, track 2; small unknown aud patch at about 2:28
Disc 2, track 7; small unknown aud patch at about 5:46
Pitch was corrected to match A= 440.

Set 1, Disc 1
01. Bob Joke? > tuning
02. Jack Straw
03. Friend Of The Devil
04. El Paso
05. Jack A Roe
06. Beat It On Down The Line
07. Brown Eyed Women
08. Minglewood Blues
09. Row Jimmy
10. Let It Grow
11. Deal

Set 2, Disc 2
01. Cold Rain And Snow
02. Samson & Delilah
03. Scarlet Begonias >
04. Jam >
05. Fire On The Mountain
06. Lost Sailor >
07. Saint Of Circumstance

Set 2, Disc 3
01. Drums >
02. Space >
03. Spanish Jam >
04. The Other One >
05. Wharf Rat >
06. Sugar Magnolia
Encore
07. Don't Ease Me In

length     expanded size    cdr  WAVE problems  fmt   ratio  filename
     3:19.33       35181260 B   ---   --   ---xx   flac  0.3445  gd1981-10-04d1t01.flac
     6:13.15       65832524 B   ---   --   ---xx   flac  0.4511  gd1981-10-04d1t02.flac
     9:10.63       97168220 B   ---   --   ---xx   flac  0.4490  gd1981-10-04d1t03.flac
     5:09.70       54672284 B   ---   --   ---xx   flac  0.4582  gd1981-10-04d1t04.flac
     4:44.10       50121164 B   ---   --   ---xx   flac  0.4816  gd1981-10-04d1t05.flac
     3:04.24       32514092 B   ---   --   ---xx   flac  0.4818  gd1981-10-04d1t06.flac
     5:22.48       56913740 B   ---   --   ---xx   flac  0.4785  gd1981-10-04d1t07.flac
     6:35.36       69762716 B   ---   --   ---xx   flac  0.5522  gd1981-10-04d1t08.flac
    11:31.00      121892444 B   ---   --   ---xx   flac  0.4714  gd1981-10-04d1t09.flac
    12:15.29      129722252 B   ---   --   ---xx   flac  0.4944  gd1981-10-04d1t10.flac
     9:00.28       95321900 B   ---   --   ---xx   flac  0.5004  gd1981-10-04d1t11.flac
     6:36.71       70021436 B   ---   --   ---xx   flac  0.4519  gd1981-10-04d2t01.flac
     7:25.65       78650924 B   ---   --   ---xx   flac  0.5179  gd1981-10-04d2t02.flac
     6:33.35       69407564 B   ---   --   ---xx   flac  0.4816  gd1981-10-04d2t03.flac
     6:05.21       64435436 B   ---   --   ---xx   flac  0.4410  gd1981-10-04d2t04.flac
    11:53.24      125829692 B   ---   --   ---xx   flac  0.4491  gd1981-10-04d2t05.flac
     8:10.33       86513660 B   ---   --   ---xx   flac  0.4250  gd1981-10-04d2t06.flac
     7:52.15       83296124 B   ---   --   ---xx   flac  0.4800  gd1981-10-04d2t07.flac
    12:56.42      136985228 B   ---   --   ---xx   flac  0.3818  gd1981-10-04d3t01.flac
     8:30.22       90015788 B   ---   --   ---xx   flac  0.3677  gd1981-10-04d3t02.flac
     3:33.15       37608524 B   ---   --   ---xx   flac  0.4531  gd1981-10-04d3t03.flac
     7:24.49       78436892 B   ---   --   ---xx   flac  0.4625  gd1981-10-04d3t04.flac
     9:50.23      104130140 B   ---   --   ---xx   flac  0.4231  gd1981-10-04d3t05.flac
     8:14.53       87266300 B   ---   --   ---xx   flac  0.5405  gd1981-10-04d3t06.flac
     3:25.68       36321980 B   ---   --   ---xx   flac  0.5781  gd1981-10-04d3t07.flac
   184:59.67     1958022284 B                            0.4616  (25 files)



Show Checksums
flac-md5
711d5d4d906258008425c326f6282cee *gd1981-10-04d1t01.flac
0fe649d13269f6757d0d3addc7d7e446 *gd1981-10-04d1t02.flac
9862012e43620dd83c959778bea8fe60 *gd1981-10-04d1t03.flac
e9bb03994961b3efb6526c097208f3e6 *gd1981-10-04d1t04.flac
7c1a4fb71fb7b4b6d451622e695f0c9d *gd1981-10-04d1t05.flac
7122239f88bb5fb48ac7756eaa1675ec *gd1981-10-04d1t06.flac
272ea7593ffb20da1b2487ca417abd8f *gd1981-10-04d1t07.flac
54761fc7b89b8a54cea8b2bf20e5e495 *gd1981-10-04d1t08.flac
be26ea307dedff6f93895f186f164b51 *gd1981-10-04d1t09.flac
cc0a94e77422fb74ae830f8c794493ff *gd1981-10-04d1t10.flac
dca32f0d3b92664ec77ab6726151364f *gd1981-10-04d1t11.flac
de6018107ea2e0ab9263ce6f39a66840 *gd1981-10-04d2t01.flac
76b4c588669da57b316a0e1566821307 *gd1981-10-04d2t02.flac
a676541f2e01984c5bd3d15694a795a3 *gd1981-10-04d2t03.flac
df83986d811d6ceded7a86101d752baa *gd1981-10-04d2t04.flac
c79eaa0cab630e33e91fad6ebc0ecb19 *gd1981-10-04d2t05.flac
505a820a7f3f523aa98509d070a56e14 *gd1981-10-04d2t06.flac
5bd9fa91cedaa56bc449f8959e204cc0 *gd1981-10-04d2t07.flac
6cb0807dfbe4bc92f03aa2cd6ede8192 *gd1981-10-04d3t01.flac
38ce9f056c4c9b1a05067499a3a21845 *gd1981-10-04d3t02.flac
08f82762cae62e05faecac3bf11be37d *gd1981-10-04d3t03.flac
9f8f20754335453d95020cb5a8fb1191 *gd1981-10-04d3t04.flac
6870c8fe79615ffab961cfa5fa147540 *gd1981-10-04d3t05.flac
14ac22594a74eedc49dd989aa369c7c9 *gd1981-10-04d3t06.flac
dff0e7d7f1be9115847aa41a280d6db8 *gd1981-10-04d3t07.flac
ffp
gd1981-10-04d1t01.flac:cdb8f90473d392c2076ff8837293b5f1
gd1981-10-04d1t02.flac:7c5eed2ae8348b2e7551552dd3a10a64
gd1981-10-04d1t03.flac:3c2795869534ba9ea3e4e783ccdb6579
gd1981-10-04d1t04.flac:f2edeb5be46d8eef8b854046d4a488e7
gd1981-10-04d1t05.flac:bfd8c36219066c77e202cdeb2dcd00c1
gd1981-10-04d1t06.flac:06b913d83040b830ab56f6b5dae79b39
gd1981-10-04d1t07.flac:2e799fe86dbae46f8c7280238b28c354
gd1981-10-04d1t08.flac:a07e8229278a32ef357ad7878f084afd
gd1981-10-04d1t09.flac:486071674be4255cde67059dce685700
gd1981-10-04d1t10.flac:3fb359d64a2d21051d77bf200df6dcb0
gd1981-10-04d1t11.flac:6e1b1a3bf4509de26478954e221fb0c5
gd1981-10-04d2t01.flac:64acbff22cff67cfbedcf3e1a98ecabe
gd1981-10-04d2t02.flac:cadfd7524bdef0e45824bfbf2ad0ae74
gd1981-10-04d2t03.flac:93557d33ce9e43bd2c45104be7b415ee
gd1981-10-04d2t04.flac:e16123bbb4d69d0af93cad4bafdd2701
gd1981-10-04d2t05.flac:47a0c563da1d82184d41e5d66692b70f
gd1981-10-04d2t06.flac:de2a79a581bee65fa185e6fa460c26b4
gd1981-10-04d2t07.flac:19d6fe8785d44325b7bc50a82a4564c0
gd1981-10-04d3t01.flac:20b165251e1499aa9369ec3957a6eda8
gd1981-10-04d3t02.flac:c2b9fc99f7ee8d92d2b8bd8558a11462
gd1981-10-04d3t03.flac:f3c487eed33e545685f019729340df80
gd1981-10-04d3t04.flac:1bb24ee025a7fd41ac85891e5dc56673
gd1981-10-04d3t05.flac:533e40e1b7b4a951d743099243dd1a29
gd1981-10-04d3t06.flac:1bd4ae8806af1c1491f1f5ea0f754744
gd1981-10-04d3t07.flac:15c6dd127585b54770b3fb051321fa83

Comments
Add Comment
Other Sources (comments)
Source 1:... (2) flac16; Source: SBD... (0) flac24; Partial... (0)
Date User Comment