Browse Collections Artists Sources   Search Dates

Add Show    List Management    Help


Grateful Dead 06/16/91
Giants Stadium, East Rutherford, NJ
Comments Add Comment    Source Collectors    Add to Collection    Add to Want List    History
Source # 128625 Other Sources
Entered by Matt Vernon
Checksums ffp , flac-md5
Disc Counts 0 / 0
Media Size Compressed: 983.01 MB (1030763809 bytes)
Uncompressed: 1.6 GB (1723109008 bytes)
Date Circulated
Date Added
05/10/2014
05/10/2014
Source Summary flac16; 2 Source Matrix by Dusborne Soundboard (shnid:034783) Seamless fix of shinid=17028 by Bill Tetzeli: Source: DSBD->DAT->Tascam DA-30mkII-> AES-EBU bus-> RME Intelligent 24/96 PAD-> Cool Edit Pro (direct - no edit)-> CDRWin-> Plextor Internal SCSI 12/10/32S and Audience (shnid:122648) Master Audience Recorded By Mr. Currier, Transfer By Keo AKG451 With (Rob Berger's Shotguns?)>AKG 9V Phantom Power Supply> Marantz PDM-430>Dolby B, Tapes Maxell MX-s 100's 
  Archive
Source Information - Download Text | Download Zip
Grateful Dead
June 16, 1991
Giants Stadium
East Rutherford, NJ

2 Source Matrix

Soundboard (shnid:034783)
--------------------------------------------------------------------------------
gd91-06-16.034783.sbd.gjf.tetzeli.fix-17028.reflac.sbeok.t-flac16

Fix of shnid 17028

I made the transition between CDs 2 and 3 seamless and converted the non-seekable shns to FLAC.
Overlapping fade tracks were added to the end of CD 2 and the beginning of CD 3.
For seamless playback simply remove the fade tracks.

Bill Tetzeli ([email protected])
3/30/2006

Source: DSBD->DAT->Tascam DA-30mkII-> AES-EBU bus-> RME Intelligent 24/96 PAD->
Cool Edit Pro (direct - no edit)-> CDRWin-> Plextor Internal SCSI 12/10/32S

Transfer: Re-ripped on Plextor Internal SCSI Ultraplex 40 MAX using EAC (secure
mode w/accurate stream)-> mkwACT v.97-> SHN by GJF

Audience (shnid:122648)
-------------------------------------------------------------------------------
gd91-06-16.AKG451.Currier.Keo.122648.Flac1644

Master Audience Recorded By Mr. Currier, Transfer By Keo

AKG451 With (Rob Berger's Shotguns?)>AKG 9V Phantom Power Supply>
Marantz PDM-430>Dolby B, Tapes Maxell MX-s 100's

Transfer With Nakamichi MR-1>No Dolby>Korg MR-1000 @ 1 Bit/5.6 MHz

Tracking/Sample Rate Conversion With AudioGate Software To 32/96 kHz Wave

Dithered/Flacked With Korg Aqua To 16/44

SBE's Checked/Fixed With Trader's Little Helper

Metadata Tagging With Tag & Rename

Comments:Another Huge Thanks out to Mr. Currier
for recording and sharing his source for this
first night at Giants Stadium.This recording
sounds sweet and tapes were in pristine shape!
Thank You Mr. Currier!!!!!!!!!!!!!!!!!!!!
AS ALWAYS ENJOY!!!!!!!!!!!!!!!!!!!!!!
--------------------------------------------------------------------------------

---Thank you GJF and Bill Tetzeli for your work on the SBD.
---Thank you Mr. Currier for recording the show.
---Thank you Keo for your transfer and work on the AUD.
---Thank you XJ32 for the art work.
---Thank you Germain for your advice, encouragement, guidance and seeding.

Matrix by dusborne

04-20-2014
-------------------------------------------------------------------------------

Set 1

101 - gd91-06-16s1t01 - Tuning
102 - gd91-06-16s1t02 - Picasso Moon
103 - gd91-06-16s1t03 - Bertha
104 - gd91-06-16s1t04 - Little Red Rooster
105 - gd91-06-16s1t05 - Candyman
106 - gd91-06-16s1t06 - Memphis Blues
107 - gd91-06-16s1t07 - Stagger Lee
108 - gd91-06-16s1t08 - Let It Grow

Set 2

201 - gd91-06-16s2t01 - Tuning
202 - gd91-06-16s2t02 - Jack Straw ->
203 - gd91-06-16s2t03 - Crazy Fingers ->
204 - gd91-06-16s2t04 - China Cat Sunflower ->
205 - gd91-06-16s2t05 - I Know You Rider ->
206 - gd91-06-16s2t06 - Drums ->
207 - gd91-06-16s2t07 - Space ->
208 - gd91-06-16s2t08 - I Need A Miracle ->
209 - gd91-06-16s2t09 - Black Peter ->
210 - gd91-06-16s2t10 - Throwing Stones ->
211 - gd91-06-16s2t11 - Not Fade Away ->

Encore
212 - gd91-06-16s2t12 - Box Of Rain
--------------------------------------------------------------------------------

Tagging notes:
Show information is embedded within the header
of each flac file. It will display on any player
capable of directly playing flac files.
If converted to wav during processing, all tags
will be stripped, however audio data will remain
unaffected. If you must transcode to a lossy format,
do so directly Flac > Lossy.
Use ffp to validate audio integrity.
Md5 values will change if tagging is altered.
Dave Usborne 04-20-2014
--------------------------------------------------------------------------------

   length     expanded size    cdr  WAVE problems  fmt   ratio  filename
     2:49.18       29853980 B   ---   --   ---xx   flac  0.5346  gd91-06-16s1t01.flac
     6:55.13       73236620 B   ---   --   ---xx   flac  0.6268  gd91-06-16s1t02.flac
     7:22.24       78025292 B   ---   --   ---xx   flac  0.6275  gd91-06-16s1t03.flac
    10:44.50      113719244 B   ---   --   ---xx   flac  0.5930  gd91-06-16s1t04.flac
     7:49.53       82856300 B   ---   --   ---xx   flac  0.5955  gd91-06-16s1t05.flac
     9:23.42       99412028 B   ---   --   ---xx   flac  0.6059  gd91-06-16s1t06.flac
     7:47.40       82472924 B   ---   --   ---xx   flac  0.6192  gd91-06-16s1t07.flac
    12:34.38      133095020 B   ---   --   ---xx   flac  0.6071  gd91-06-16s1t08.flac
     1:33.71       16572236 B   ---   --   ---xx   flac  0.5709  gd91-06-16s2t01.flac
     5:53.73       62440940 B   ---   --   ---xx   flac  0.6418  gd91-06-16s2t02.flac
     8:29.02       89792348 B   ---   --   ---xx   flac  0.6028  gd91-06-16s2t03.flac
     7:34.04       80095052 B   ---   --   ---xx   flac  0.6257  gd91-06-16s2t04.flac
     5:18.65       56248124 B   ---   --   ---xx   flac  0.6400  gd91-06-16s2t05.flac
    11:53.20      125820284 B   ---   --   ---xx   flac  0.5612  gd91-06-16s2t06.flac
    14:08.36      149671916 B   ---   --   ---xx   flac  0.5447  gd91-06-16s2t07.flac
     5:47.07       61227308 B   ---   --   ---xx   flac  0.6167  gd91-06-16s2t08.flac
    11:50.18      125286380 B   ---   --   ---xx   flac  0.5822  gd91-06-16s2t09.flac
     9:04.03       95968700 B   ---   --   ---xx   flac  0.6002  gd91-06-16s2t10.flac
    10:36.71      112357436 B   ---   --   ---xx   flac  0.6044  gd91-06-16s2t11.flac
     5:11.41       54956876 B   ---   --   ---xx   flac  0.5992  gd91-06-16s2t12.flac
   162:48.14     1723109008 B                            0.5982  (20 files)



Show Checksums
ffp
gd91-06-16s1t01.flac:900e30f5ef910b6d8e0c45b3a196dabe
gd91-06-16s1t02.flac:165edf5b3ebfc4d1992a38bf00d411aa
gd91-06-16s1t03.flac:2de374bb18ede4be50c7b3fc722ab537
gd91-06-16s1t04.flac:645c11c22148b156c9848da1cf501cd6
gd91-06-16s1t05.flac:9b2844900e7f6115ed909af506469c14
gd91-06-16s1t06.flac:5836d2e20229d60a4c4e0cc8ed9c9687
gd91-06-16s1t07.flac:9cfc8c9f4296ecf5a82c188ee2098c51
gd91-06-16s1t08.flac:b0ee0a705005744db14d11bf6e1f668a
gd91-06-16s2t01.flac:b89e60b46806cec6429a1a446909129d
gd91-06-16s2t02.flac:5f057cdab39344fd047ae4c1f5e94218
gd91-06-16s2t03.flac:90bf1c393129b78b515b9f02da0f9f67
gd91-06-16s2t04.flac:8f5a306b82f7138cfcd498b00d8043fd
gd91-06-16s2t05.flac:539564b75880c4d6dc80bebe0ac71e86
gd91-06-16s2t06.flac:9549b021b24e0912cb817745c7e40286
gd91-06-16s2t07.flac:b51ed2302891a9dbd517854964d2a873
gd91-06-16s2t08.flac:e6abc86e1d33a6c141c3ae646118ccd3
gd91-06-16s2t09.flac:a829befaeaee5eaaf7371256faf72d3d
gd91-06-16s2t10.flac:bb6f0bf7961562425853b1e19f782c0e
gd91-06-16s2t11.flac:cd2cb90b6a625e57d9f61b1e36c999a5
gd91-06-16s2t12.flac:1750e3a49770b5ba92d27641ed1c474d
flac-md5
d64f9c29b115bf1d77742f1fd4ab6052 *gd91-06-16s1t01.flac
921cf7270941cf4cb57dcbc3a8bcf59a *gd91-06-16s1t02.flac
8a7766aeeee631ba250569347ede5e67 *gd91-06-16s1t03.flac
586eda27e996bf421cc35e797d674f97 *gd91-06-16s1t04.flac
a4871944476b6205bc33c184b844db65 *gd91-06-16s1t05.flac
d57fb73a21a270894544c4aa19444d39 *gd91-06-16s1t06.flac
59779b7733115e7c5eb43c9604de4c8c *gd91-06-16s1t07.flac
90d603d7ba29d667d418823358d5c6fd *gd91-06-16s1t08.flac
6f2dcff57cb45e7747090972dcda557d *gd91-06-16s2t01.flac
380a0a6c9a9090722bb2af63e5d6a0d8 *gd91-06-16s2t02.flac
16bceb5ee908e1aee9bcb43833054450 *gd91-06-16s2t03.flac
a7d0c74388600e59de92b6eed4f7b788 *gd91-06-16s2t04.flac
2c217fe329476f265d10bd0d4bdbfb4d *gd91-06-16s2t05.flac
8038315ece2cceae9c0b2c7e33681d67 *gd91-06-16s2t06.flac
3c264d859cc36569cd1488c33fbd72ac *gd91-06-16s2t07.flac
d5f8b26e9a77689d2450e610b9ae3406 *gd91-06-16s2t08.flac
7a4ac3f906335006dc00e21edd68bfda *gd91-06-16s2t09.flac
55126947e8f5e67aacaa493c35aebd45 *gd91-06-16s2t10.flac
b826c6f8e3d13f9996dda286f85af1e7 *gd91-06-16s2t11.flac
061d5ba207090e9d9c0c87c0e178889c *gd91-06-16s2t12.flac

Comments
Add Comment
Other Sources (comments)
SBD > ? > DAT > CDR > WAV... (0) Source: DSBD (DAT)-> Tascam... (0) flac16;... (2) flac16; Master... (0) flac24; Master... (0) flac16; Master... (0) flac16; Source: B&K... (0) flac16; (original... (0) flac16; (original... (0) flac16; Matrix 2... (0) DTS-Audio-CD 5.1... (0) flac16/48kHz; 5.1... (0) flac16; DSDB>clone... (0)
Date User Comment