Browse Collections Artists Sources   Search Dates

Add Show    List Management    Help


Grateful Dead 03/06/81
Stanley Theater, Pittsburgh, PA
Comments Add Comment    Source Collectors    Add to Collection    Add to Want List    History
Source # 128664 Other Sources
Entered by Matt Vernon
Checksums orig-ffp , orig-md5 , ffp , flac-md5
Disc Counts 0 / 0
Media Size Compressed: 3.59 GB (3849493426 bytes)
Uncompressed: 5.59 GB (6007324322 bytes)
Date Circulated
Date Added
05/11/2014
05/11/2014
Source Summary flac24; Recording by Jim Wise: Master Audience Cassette; 2 Sennheiser 421s> Sony D-5 Center Loge; Transfer and FLAC encoding by David Minches: April 2014; Dolby B decoded Master played back on Nakamichi Dragon > Korg MR-1000(DSF [1-bit 5.6448 MHz Stereo]); Korg AudioGate > WAV [24/96] > Adobe Audition 3.0> FLAC encoding (24/96 version) 
  Archive
Source Information - Download Text | Download Zip
Grateful Dead
March 6, 1981
Stanley Theater
Pittsburgh, PA

Recording by Jim Wise:
Master Audience Cassette; 2 Sennheiser 421s> Sony D-5 Center Loge
Transfer and FLAC encoding by David Minches: April 2014
Dolby B decoded Master played back on Nakamichi Dragon > Korg MR-1000(DSF [1-bit 5.6448 MHz Stereo])
Korg AudioGate > WAV [24/96] > Adobe Audition 3.0> FLAC encoding (24/96 version)

____________________________________________________________________________________________________

--Set 1--
s1t01 - Tuning
s1t02 - Jack Straw
s1t03 - Peggy-O
s1t04 - Cassidy
s1t05 - They Love Each Other
s1t06 - El Paso
s1t07 - Row Jimmy ->
s1t08 - Little Red Rooster
s1t09 - Brown-Eyed Women
s1t10 - Let It Grow ->
s1t11 - Deal

--Set 2--
s2t01 - Tuning
s2t02 - Samson and Delilah
s2t03 - It Must Have Been the Roses
s2t04 - Estimated Prophet ->
s2t05 - Franklin's Tower ->
s2t06 - Drums ->
s2t07 - Space ->
s2t08 - The Other One ->
s2t09 - Stella Blue ->
s2t10 - Sugar Magnolia

--Encore--
s2t11 - Don't Ease Me In
____________________________________________________________________________________________________

Tagging notes:
Show information is embedded within the headerof each flac file.
It will display on any player capable of directly playing flac files.
If converted to wav during processing, all tags will be stripped,
however audio data will remain unaffected.
If you must transcode to a lossy format, do so directly Flac > Lossy.
Use ffp to validate audio integrity.
Md5 values will change if tagging is altered.
B. Proctor 5/11/2014
____________________________________________________________________________________________________

    length     expanded size    cdr  WAVE problems  fmt   ratio  filename
     0:34.366      19795070 B   cxx   --   ---xx   flac  0.6297  s01t01 - Tuning.flac
     5:46.254     199442234 B   cxx   --   ---xx   flac  0.6471  s01t02 - Jack Straw.flac
     8:08.882     281595998 B   cxx   --   ---xx   flac  0.6304  s01t03 - Peggy-O.flac
     5:37.330     194302322 B   cxx   --   ---xx   flac  0.6427  s01t04 - Cassidy.flac
     6:44.681     233096558 B   cxx   --   ---xx   flac  0.6344  s01t05 - They Love Each Other.flac
     6:27.836     223393832 B   cxx   --   ---xx   flac  0.6365  s01t06 - El Paso.flac
    10:43.747     370798178 B   cxx   --   ---xx   flac  0.6363  s01t07 - Row Jimmy.flac
     9:38.219     333054458 B   cxx   --   ---xx   flac  0.6505  s01t08 - Little Red Rooster.flac
     6:37.594     229014422 B   cxx   --   ---xx   flac  0.6406  s01t09 - Brown-Eyed Women.flac
    12:00.668     415104632 B   cxx   --   ---xx   flac  0.6522  s01t10 - Let It Grow.flac
     7:58.331     275518934 B   cxx   --   ---xx   flac  0.6532  s01t11 - Deal.flac
     2:27.797      85130930 B   cxx   --   ---xx   flac  0.6165  s02t01 - Tuning.flac
     8:26.235     291591686 B   cxx   --   ---xx   flac  0.6521  s02t02 - Samson and Delilah.flac
     7:46.165     268511054 B   cxx   --   ---xx   flac  0.6295  s02t03 - It Must Have Been The Roses.flac
    11:27.592     396053264 B   cxx   --   ---xx   flac  0.6486  s02t04 - Estimated Prophet.flac
    15:04.672     521091140 B   cxx   --   ---xx   flac  0.6491  s02t05 - Franklin's Tower.flac
     6:48.678     235398764 B   cxx   --   ---xx   flac  0.6257  s02t06 - Drums.flac
     7:38.844     264294134 B   cxx   --   ---xx   flac  0.6119  s02t07 - Space.flac
    11:14.766     388665110 B   cxx   --   ---xx   flac  0.6383  s02t08 - The Other One.flac
    10:14.392     353889680 B   cxx   --   ---xx   flac  0.6248  s02t09 - Stella Blue.flac
     8:58.086     309937652 B   cxx   --   ---xx   flac  0.6568  s02t10 - Sugar Magnolia.flac
     3:24.243     117644270 B   cxx   --   ---xx   flac  0.6531  s02t11 - Don't East Me In.flac
   173:49.381    6007324322 B                            0.6408  (22 files)





Show Checksums
orig-ffp
s01t01 - Tuning.flac:4a00e959998749da81fe9aedea4fc272
s01t02 - Jack Straw.flac:cbec8cb1b20d6fe8403b5c8ef6c1210f
s01t03 - Peggy-O.flac:beac90ee3158d0d6d5de87f2a9420f36
s01t04 - Cassidy.flac:dc34421a1c94201d55cf1df48ba01f7e
s01t05 - They Love Each Other.flac:f08a032b53e97d4b6963e7d3a0d39356
s01t06 - El Paso.flac:27495c87a694f80c5f99a5f12fe2e1c0
s01t07 - Row Jimmy.flac:2f7e00248fc6b21d3181b0b4a3beeae5
s01t08 - Little Red Rooster.flac:9075f7a58d7417e9960dbec533475821
s01t09 - Brown-Eyed Women.flac:5d54ef7496ce82a09cb9ed6cbe26abc8
s01t10 - Let It Grow.flac:6f9c8221961e3fb2190b9209f11420b5
s01t11 - Deal.flac:fb7ff83b6d4632056d7ba237df0165d1
s02t01 - Tuning.flac:70cc89e87d43823d914b3cde7b76b2bf
s02t02 - Samson and Delilah.flac:8eb655de17403a95f9fe2f43119fe400
s02t03 - It Must Have Been The Roses.flac:cb5f246ae2e831012cfff86d4653aa59
s02t04 - Estimated Prophet.flac:ecdd2a47ba2ebafd52212bb5058b17e9
s02t05 - Franklin's Tower.flac:807d8c46ff1a0a3a0799a877b3bae4da
s02t06 - Drums.flac:c793816db0445003dd8361550d61cc41
s02t07 - Space.flac:f6bb0f7a587025accbcacf262f9181c7
s02t08 - The Other One.flac:df3895c2b5c1916c12f8b4184757382a
s02t09 - Stella Blue.flac:cc840c8ca74503a0be943ff2a7dcad1a
s02t10 - Sugar Magnolia.flac:820f5155f6e97e331ee85dc419d97aeb
s02t11 - Don't East Me In.flac:3400bbbdcee7658c7e1ec8342562b8c2
orig-md5
fa9af4dc22adfee6564ea86a9c286c4a *s01t01 - Tuning.flac
2f166b8ea335c4ea65cddadf36e77732 *s01t02 - Jack Straw.flac
00cbbc84bf06f5711d29082ce8760271 *s01t03 - Peggy-O.flac
4ce66f37d0b7cede0c6b4d6a3b38c05e *s01t04 - Cassidy.flac
ec5ec89ce46e34867298f58e540b4a47 *s01t05 - They Love Each Other.flac
174dffc95b0d729198ba579618fb6aa5 *s01t06 - El Paso.flac
e0fe79bad0099915c6cd8384ff5d803d *s01t07 - Row Jimmy.flac
99e65b4fbd3f582d136443deeea984cf *s01t08 - Little Red Rooster.flac
5c70327c542ba398603ed1c462b7ef65 *s01t09 - Brown-Eyed Women.flac
8aaf0ebe58e48d2f8ce76e98488159b7 *s01t10 - Let It Grow.flac
3e89ab633eb364e6ba39a476379fcdd7 *s01t11 - Deal.flac
84d0f3d8598dbe7b5f66679e75f689cd *s02t01 - Tuning.flac
f0b7fa9179ce5151ac3f163ad97b8526 *s02t02 - Samson and Delilah.flac
37cbbd853c5948d6d24fa14bcad14fd5 *s02t03 - It Must Have Been The Roses.flac
a25233c90760e48b39534c3a2f4c657a *s02t04 - Estimated Prophet.flac
690ca1b4a91e8fb9588a0b1609641e19 *s02t05 - Franklin's Tower.flac
1fea1105d4b2a15d261099b5044a30c6 *s02t06 - Drums.flac
6c5b885f0da6e792364039a33e854ff9 *s02t07 - Space.flac
2ada9bc430ec25a1ab6c987e76833902 *s02t08 - The Other One.flac
1b8f119e4464ba496b718556ffa29c60 *s02t09 - Stella Blue.flac
cc8b1b698220b62a6d09be989c1e2c3b *s02t10 - Sugar Magnolia.flac
c9a69d29f1dcfca9f7df157da259b4f4 *s02t11 - Don't East Me In.flac
ffp
s01t01.flac:4a00e959998749da81fe9aedea4fc272
s01t02.flac:cbec8cb1b20d6fe8403b5c8ef6c1210f
s01t03.flac:beac90ee3158d0d6d5de87f2a9420f36
s01t04.flac:dc34421a1c94201d55cf1df48ba01f7e
s01t05.flac:f08a032b53e97d4b6963e7d3a0d39356
s01t06.flac:27495c87a694f80c5f99a5f12fe2e1c0
s01t07.flac:2f7e00248fc6b21d3181b0b4a3beeae5
s01t08.flac:9075f7a58d7417e9960dbec533475821
s01t09.flac:5d54ef7496ce82a09cb9ed6cbe26abc8
s01t10.flac:6f9c8221961e3fb2190b9209f11420b5
s01t11.flac:fb7ff83b6d4632056d7ba237df0165d1
s02t01.flac:70cc89e87d43823d914b3cde7b76b2bf
s02t02.flac:8eb655de17403a95f9fe2f43119fe400
s02t03.flac:cb5f246ae2e831012cfff86d4653aa59
s02t04.flac:ecdd2a47ba2ebafd52212bb5058b17e9
s02t05.flac:807d8c46ff1a0a3a0799a877b3bae4da
s02t06.flac:c793816db0445003dd8361550d61cc41
s02t07.flac:f6bb0f7a587025accbcacf262f9181c7
s02t08.flac:df3895c2b5c1916c12f8b4184757382a
s02t09.flac:cc840c8ca74503a0be943ff2a7dcad1a
s02t10.flac:820f5155f6e97e331ee85dc419d97aeb
s02t11.flac:3400bbbdcee7658c7e1ec8342562b8c2
flac-md5
fa9af4dc22adfee6564ea86a9c286c4a *s01t01.flac
2f166b8ea335c4ea65cddadf36e77732 *s01t02.flac
00cbbc84bf06f5711d29082ce8760271 *s01t03.flac
4ce66f37d0b7cede0c6b4d6a3b38c05e *s01t04.flac
ec5ec89ce46e34867298f58e540b4a47 *s01t05.flac
174dffc95b0d729198ba579618fb6aa5 *s01t06.flac
e0fe79bad0099915c6cd8384ff5d803d *s01t07.flac
99e65b4fbd3f582d136443deeea984cf *s01t08.flac
5c70327c542ba398603ed1c462b7ef65 *s01t09.flac
8aaf0ebe58e48d2f8ce76e98488159b7 *s01t10.flac
3e89ab633eb364e6ba39a476379fcdd7 *s01t11.flac
84d0f3d8598dbe7b5f66679e75f689cd *s02t01.flac
f0b7fa9179ce5151ac3f163ad97b8526 *s02t02.flac
37cbbd853c5948d6d24fa14bcad14fd5 *s02t03.flac
a25233c90760e48b39534c3a2f4c657a *s02t04.flac
690ca1b4a91e8fb9588a0b1609641e19 *s02t05.flac
1fea1105d4b2a15d261099b5044a30c6 *s02t06.flac
6c5b885f0da6e792364039a33e854ff9 *s02t07.flac
2ada9bc430ec25a1ab6c987e76833902 *s02t08.flac
1b8f119e4464ba496b718556ffa29c60 *s02t09.flac
cc8b1b698220b62a6d09be989c1e2c3b *s02t10.flac
c9a69d29f1dcfca9f7df157da259b4f4 *s02t11.flac

Comments
Add Comment
Other Sources (comments)
Audience recording by Jim... (0) Set 2 soundboard, minus... (1) flac16; Recording by... (0) flac16; Recording by... (0) flac16; Recorded By... (0) flac16; Source Info:... (0) flac24; Source Info:... (0)
Date User Comment