Browse Collections Artists Sources   Search Dates

Add Show    List Management    Help


Grateful Dead 10/08/81
Forum Theater, Copenhagen, Denmark
Comments Add Comment    Source Collectors    Add to Collection    Add to Want List    History
Source # 128681 Other Sources
Entered by Gary Field
Checksums flac-md5 , ffp
Disc Counts 2 / 3
Media Size Compressed: 977.42 MB (1024897643 bytes)
Date Circulated
Date Added
05/13/2014
05/12/2014
Source Summary flac16; Recording and transfer info SBD > CM > C; C > Pioneer deck > wav > Sound Forge 10 > TLH > flac 
  Archive
Source Information - Download Text | Download Zip
THE GRATEFUL DEAD
The Forum Theatre
Copenhagen, Denmark
October 8, 1981

Recording and transfer info.
SBD > CM > C
C > Pioneer deck > wav > Sound Forge 10 > TLH > flac

Got this and several other 1981 shows in a mail trade from
a Deadhead in Germany about fifteen years ago. All are on
Maxell XL II 90 minute cassettes

Only other circulating SBD source, shnid 7918, has major pitch
problems, and loud tape hiss. It is, IMO, at least 5th or 6th gen.

This major upgrade eliminates hiss, and, pitch has been
corrected. A top five favorite performance of 1981.

Transferred, tracked and mastered by Bill Guarneri. May 12, 2014

Fixes and notes;
Disc 1, tracks 3 and 4 suffer from technical problems
Disc 1, track 7 patched with unknown aud at 1:53 to end
Disc 2, track 3 patched with unknown aud at 7:04 - 8:05
Disc 2, track 5 has static glitch at about 11:00
Disc 3, track 2 may have small piece of "Space" missing

Set 1, Disc 1
01. Feel Like A Stranger
02. They Love Each Other
03. CC Rider
04. Cumberland Blues
05. Cassidy
06. Loser
07. Mama Tried
08. Mexicali Blues
09. Althea >
10. The Music Never Stopped

Set 2, Disc 2
01. Scarlet Begonias >
02. Jam >
03. Fire On The Mountain
04. Playin' In The Band
05. Terrapin Station

Set 2, Disc 3
01. Drums >
02 Space >
03. Jam
04. Not Fade Away
05. Black Peter
06. Around And Around
07. Johnny B. Goode
Encore
08. U.S. Blues

length     expanded size    cdr  WAVE problems  fmt   ratio  filename
     7:43.23       81727340 B   ---   --   ---xx   flac  0.5727  gd1981-10-08d1t01.flac
     7:08.23       75553340 B   ---   --   ---xx   flac  0.5410  gd1981-10-08d1t02.flac
     8:01.23       84902540 B   ---   --   ---xx   flac  0.5487  gd1981-10-08d1t03.flac
     4:37.48       48975740 B   ---   --   ---xx   flac  0.5572  gd1981-10-08d1t04.flac
     5:07.40       54248924 B   ---   --   ---xx   flac  0.5594  gd1981-10-08d1t05.flac
     7:36.41       80534876 B   ---   --   ---xx   flac  0.5403  gd1981-10-08d1t06.flac
     2:34.13       27196220 B   ---   --   ---xx   flac  0.6029  gd1981-10-08d1t07.flac
     4:41.04       49577852 B   ---   --   ---xx   flac  0.5553  gd1981-10-08d1t08.flac
     9:00.64       95406572 B   ---   --   ---xx   flac  0.5531  gd1981-10-08d1t09.flac
     8:57.59       94865612 B   ---   --   ---xx   flac  0.5478  gd1981-10-08d1t10.flac
     6:03.60       64174364 B   ---   --   ---xx   flac  0.5870  gd1981-10-08d2t01.flac
     8:53.19       94065932 B   ---   --   ---xx   flac  0.5869  gd1981-10-08d2t02.flac
    15:05.43      159743180 B   ---   --   ---xx   flac  0.5766  gd1981-10-08d2t03.flac
    12:00.13      127038620 B   ---   --   ---xx   flac  0.5591  gd1981-10-08d2t04.flac
    14:55.41      157974476 B   ---   --   ---xx   flac  0.5621  gd1981-10-08d2t05.flac
    11:05.05      117317804 B   ---   --   ---xx   flac  0.5150  gd1981-10-08d3t01.flac
     5:45.71       61025036 B   ---   --   ---xx   flac  0.5043  gd1981-10-08d3t02.flac
     2:50.05       29999804 B   ---   --   ---xx   flac  0.6012  gd1981-10-08d3t03.flac
     6:50.61       72467516 B   ---   --   ---xx   flac  0.5675  gd1981-10-08d3t04.flac
    10:08.73      107422940 B   ---   --   ---xx   flac  0.5685  gd1981-10-08d3t05.flac
     3:48.50       40336844 B   ---   --   ---xx   flac  0.5882  gd1981-10-08d3t06.flac
     4:23.14       46426172 B   ---   --   ---xx   flac  0.5824  gd1981-10-08d3t07.flac
     5:14.30       55460204 B   ---   --   ---xx   flac  0.6100  gd1981-10-08d3t08.flac
   172:33.73     1826441908 B                            0.5611  (23 files)



Show Checksums
flac-md5
808755f5a5f95ff7e54968de14b41a20 *gd1981-10-08d1t01.flac
a068d69a5693bce96ae005ce2a44a093 *gd1981-10-08d1t02.flac
9f541778532e7e87b79e8411b8605234 *gd1981-10-08d1t03.flac
f68fc969a110d2e7c21076810689e164 *gd1981-10-08d1t04.flac
8ee4ec52e5c95646306be5b2c4cb0553 *gd1981-10-08d1t05.flac
29abeb44eaa8967b9c82d22b1b55f79f *gd1981-10-08d1t06.flac
fbd7bd45a48c142890dc5a781e715c1e *gd1981-10-08d1t07.flac
768f95b7305ce0d5fccc34251b83e97c *gd1981-10-08d1t08.flac
4d588a2d5911fa3019bc2008156cbf4e *gd1981-10-08d1t09.flac
0c9014e04aec0246c454316a9e7b2123 *gd1981-10-08d1t10.flac
f4a1209caf91ca487483e8758554045a *gd1981-10-08d2t01.flac
edece82316664337eb90be6da64abc68 *gd1981-10-08d2t02.flac
2803c6e580cc1a6cf60aaced5a836867 *gd1981-10-08d2t03.flac
f497f0792485ce615b5d3295c46a87d3 *gd1981-10-08d2t04.flac
ab0004796b87ef9f8c02e385232bf0bc *gd1981-10-08d2t05.flac
d4424f9ef5f07d6282628bfa9b9fa49a *gd1981-10-08d3t01.flac
7ba05929bc60c6f28d5dc7fad7fef478 *gd1981-10-08d3t02.flac
87512a63ba42e5eb8fdbf18a53e6fd7c *gd1981-10-08d3t03.flac
975cb41b07c8c0efd5f9646593cdc302 *gd1981-10-08d3t04.flac
567fb0bb6dfbad2ab31f761ece2291d1 *gd1981-10-08d3t05.flac
fe170c0c8cbf9621cb50816aa433c549 *gd1981-10-08d3t06.flac
4a2801334fed2063dade4a16eef348fe *gd1981-10-08d3t07.flac
44757d55d0e29d0caa6effae9797c8bc *gd1981-10-08d3t08.flac
ffp
gd1981-10-08d1t01.flac:2be8505c01d10757e975aa6c31a96833
gd1981-10-08d1t02.flac:623e9e8017215287980683fada7b8257
gd1981-10-08d1t03.flac:50d8e5d63bf29258c232cf74de11f371
gd1981-10-08d1t04.flac:43ffbe0c54eb0fb470883da46cc16498
gd1981-10-08d1t05.flac:11e0de2cfe34c689af2eb819aab8c431
gd1981-10-08d1t06.flac:acfb2dc610576e03e59d227486ab24bd
gd1981-10-08d1t07.flac:77bd10b375c96ea545cae61fc07a295e
gd1981-10-08d1t08.flac:3be36225a8c39249cfa52f5d0a3b7f7b
gd1981-10-08d1t09.flac:bb5608e59c2d71ed33ce4b79a68289f4
gd1981-10-08d1t10.flac:f8c74392245614893b7bc11805b48c75
gd1981-10-08d2t01.flac:7387c4b8a7f9828d81e3a353b447091e
gd1981-10-08d2t02.flac:4e95575726af61d3f0cf32feb535128e
gd1981-10-08d2t03.flac:1eacb56125c54e4dcc6885f5e9a81d2f
gd1981-10-08d2t04.flac:590805578f4c85b6612a09d3a3f35b9b
gd1981-10-08d2t05.flac:bb6d313e4b87c35e0d6a665d79a80e94
gd1981-10-08d3t01.flac:e0ffd6900718b911a95a28840b6e1ca9
gd1981-10-08d3t02.flac:76974f8b23829fb91a3c4595ef6494c3
gd1981-10-08d3t03.flac:15803ee5886def5f6e91e861dc5f7f1c
gd1981-10-08d3t04.flac:e39647747a9a542d0b46675d228182db
gd1981-10-08d3t05.flac:7a9cb3e8434e55a620f1f452a87693cf
gd1981-10-08d3t06.flac:87ec321ef7a0b7e157572f12caafb797
gd1981-10-08d3t07.flac:8ed5920c649285e3afae3620c75eab57
gd1981-10-08d3t08.flac:8c18276aa5c291bf03b2992c0ac82340

Comments
Add Comment
Other Sources (comments)
SBD: CM > CASS > DAT > Pro... (0) flac16; Partial,... (1)
Date User Comment