Browse Collections Artists Sources   Search Dates

Add Show    List Management    Help


Grateful Dead 04/15/89
The Mecca, Milwaukee, WI
Comments Add Comment    Source Collectors    Add to Collection    Add to Want List    History
Source # 128700 Other Sources
Entered by Matt Vernon
Checksums ffp , flac-md5
Disc Counts 0 / 0
Media Size Compressed: 370.9 MB (388920115 bytes)
Date Circulated
Date Added
05/15/2014
05/16/2014
Source Summary flac16; Set One 2 source Matrix 80% sbd/20% soundtrack; Audio edited with iZotope Ozone 5 advanced; Matrix created with Adobe Audition 1.5; Audio editing and matrix by SIRMick 
  Archive
Source Information - Download Text | Download Zip
Grateful Dead
The Mecca
Milwaukee, WI
04/15/1989
Set I

2 source Matrix  80% sbd/20% soundtrack

Sbd -

Recording Info: SBD -> Cassette Master (TDK MA-XG90)

Transfer Info:
Cassette Master (Tascam 122mkII) -> Apogee MiniMe (24bit/48k) ->
Samplitude Professional v8.01 -> FLAC/16
All Transfers and Mastering By Charlie Miller
[email protected]
December 17, 2006

Notes:

-Thanks to Paul Scotton and Joani Walker for the tapes

Video soundtrack - Extracted by Greyful Dave



01   tuning
02   Mississippi Half-Step Uptown Toodeloo
03   Feel Like A Stranger
04   Franklin's Tower
05   Walkin' Blues
06   crowd/tuning
07   When Push Comes To Shove
08   crowd/tuning
09   Queen Jane Approximately
08   crowd/tuning
09   Blow Away >
10   The Promised Land



Notes:

- I reduced the sbd gain in left channel to centre the vocals
- The soundtrack has been edited to stereoise the mids and bass

Audio edited with iZotope Ozone 5 advanced
Matrix created with Adobe Audition 1.5


Thanks to all involved.

Audio editing and matrix
SIRMick
May 2014


shntool ouput:

    length     expanded size    cdr  WAVE problems  fmt   ratio  filename
     1:05.47       11576588 B   ---   --   ---xx   flac  0.5055  gd89-04-15s1t01.flac
     6:57.33       73636460 B   ---   --   ---xx   flac  0.6051  gd89-04-15s1t02.flac
     7:46.01       82204796 B   ---   --   ---xx   flac  0.6291  gd89-04-15s1t03.flac
     8:40.51       91847996 B   ---   --   ---xx   flac  0.6226  gd89-04-15s1t04.flac
     5:45.16       60895676 B   ---   --   ---xx   flac  0.6119  gd89-04-15s1t05.flac
     1:52.46       19865036 B   ---   --   ---xx   flac  0.5139  gd89-04-15s1t06.flac
     4:40.43       49493180 B   ---   --   ---xx   flac  0.6259  gd89-04-15s1t07.flac
     1:06.50       11760044 B   ---   --   ---xx   flac  0.4954  gd89-04-15s1t08.flac
     6:01.47       63790988 B   ---   --   ---xx   flac  0.6219  gd89-04-15s1t09.flac
     2:22.65       25201724 B   ---   --   ---xx   flac  0.5160  gd89-04-15s1t10.flac
     9:37.71      101949836 B   ---   --   ---xx   flac  0.6058  gd89-04-15s1t11.flac
     4:42.31       49817756 B   ---   --   ---xx   flac  0.6203  gd89-04-15s1t12.flac
    60:39.51      642040080 B                            0.6058  (12 files)


Show Checksums
ffp
gd89-04-15s1t01.flac:70e89994b37582ab2fbc37da1adc407f
gd89-04-15s1t02.flac:e33d2b63cfc3977ce2739232a56e3685
gd89-04-15s1t03.flac:c1f4a8ec00b8e88299ecccdd21030fca
gd89-04-15s1t04.flac:bd259ecb82440002f5a376fe02468733
gd89-04-15s1t05.flac:b8385acc5ca5110725a119638e711ba8
gd89-04-15s1t06.flac:8f986fc9071765c9d509d2d9d8d06bfd
gd89-04-15s1t07.flac:a3c8c9f4ff2e776b151963aa48eb2851
gd89-04-15s1t08.flac:4afaa28b7f01fa67379213a436dbe398
gd89-04-15s1t09.flac:a890888e9b76723b730e499b10c92066
gd89-04-15s1t10.flac:9463deb20bbd2cdc35db8b7d048e362b
gd89-04-15s1t11.flac:1034daba48b0ee6aae834fc90d743302
gd89-04-15s1t12.flac:3cd2d36e188c942c077c4bdad1cbb0fb
flac-md5
c3c14cc1083b8a0a2336f989e66e76d0 *gd89-04-15s1t01.flac
5f5263dfed2a105c346ddd6b894a1cd2 *gd89-04-15s1t02.flac
c22dc45b7e22701efe7272fc24130915 *gd89-04-15s1t03.flac
272715561b121e23bb2e5f3b86e1f8c0 *gd89-04-15s1t04.flac
63cd495f245783215f25c2299972a653 *gd89-04-15s1t05.flac
8bd8f0deae5fe45eb6cc341ae40a4e94 *gd89-04-15s1t06.flac
160d7c25d17f67eac790aa1600be790c *gd89-04-15s1t07.flac
ea0f9cdbed80d12b9f475578b517cd03 *gd89-04-15s1t08.flac
87c0b230177c80d8f4d5b98863fab5b0 *gd89-04-15s1t09.flac
841f18c482d6d0bac1b69758e8d6512e *gd89-04-15s1t10.flac
757d5d2a70e86a518370e0f8f451f09d *gd89-04-15s1t11.flac
9677f226c3c76b7e7375901bef18208c *gd89-04-15s1t12.flac

Comments
Add Comment
Other Sources (comments)
Matrix DSBD (Panasonic... (4) flac16; Source: Dan... (1) flac16; Recording... (0) flac16; TAPER: Greg... (0) flac16: Recorded by... (0) flac24; Master... (0) flac16; Master... (0) flac16; Source Info:... (0) flac16; Source Info:... (0)
Date User Comment