Browse Collections Artists Sources   Search Dates

Add Show    List Management    Help


Drive-By Truckers 11/17/11
House of Blues, Boston, MA
Comments Add Comment    Source Collectors    Add to Collection    Add to Want List    History
Source # 128706 Other Sources
Entered by ziko
Checksums ffp
Disc Counts 0 / 0
Media Size
Date Circulated
Date Added
11/18/2011
05/17/2014
Source Summary Source: Schoeps CCM4V'S(din)>Lunatec V2>Benchmark AD2K> Sound Devices 722 (24/48) OTS/BOB/DFC/KFC/ZFC/AARP 58' From Stage, 8' High DSP: Sound Devices 722>Sound Forge 9.0>CD Wave>flac(16) 
Source Information - Download Text | Download Zip
Drive-By Truckers
House Of Blues
Boston, Massachusetts
11/17/2011

Source: Schoeps CCM4V'S(din)>Lunatec V2>Benchmark AD2K>
Sound Devices 722 (24/48)
OTS/BOB/DFC/KFC/ZFC/AARP 58' From Stage, 8' High
DSP: Sound Devices 722>Sound Forge 9.0>CD Wave>flac(16)
Recorded By: Z-Man
Seeded By: Z-Man

Disc I

01 Intro Music
02 I Used To Be A Cop
03 Gravity's Gone >
04 Puttin' People On The Moon >
05 3 Dimes Down >
06 Your Daddy HAtes Me
07 Dancing Ricky
08 Carl Perkins Caddillac
09 Heathens
10 Women Without Whiskey >
11 Everybody Needs Love
12 A Ghost To Most >
13 Where's Eddie? >
14 Goode's Field Road

Disc II

01 Where The Devil Don't Stay
02 The Fourth Night Of My Drinkin'
03 When The Pin Hits The Shell
04 Buttholeville
Encore:
05 Patterson Banter
06 Zip City
07 The Thanksgiving Filter
08 Marry Me >
09 Let There Be Rock >
10 Shut Up And Get On The Plane >
11 Angels And Fuselage

* I am missing a little over 2 minutes of the end of Angels and Fuselage due to a problem
with my battery.

A Team Dirty South Recording

Flac Fingerprint

dbt2011-11-17d01t01.flac:fa7aeaa551b7f5c1c45a9f473500a843
dbt2011-11-17d01t02.flac:1b081e2a9c0c291dbb75fffea0c135e7
dbt2011-11-17d01t03.flac:3fb0c333cf19aa435708d0615551cd43
dbt2011-11-17d01t04.flac:6cbf2dee43e6d266aa97940fe8bd96d0
dbt2011-11-17d01t05.flac:fe6d9c22e4e506da1c7b0c8bbb6e47e4
dbt2011-11-17d01t06.flac:92d72a31f07e7106faccc33d5b069c76
dbt2011-11-17d01t07.flac:d4fdd8c496e6ca7baab819c7760438cc
dbt2011-11-17d01t08.flac:b715ff42d6049fa94d02801c9581f9c5
dbt2011-11-17d01t09.flac:7949ae191b2ad41f0777fd01da9e6a71
dbt2011-11-17d01t10.flac:5c304bd9c2f89ff86a6e0308cdbbcdc4
dbt2011-11-17d01t11.flac:20b054195c2efcb4eb9c3b1a0f1c027a
dbt2011-11-17d01t12.flac:17417bf4188566d75fc1de90e3e142f8
dbt2011-11-17d01t13.flac:536105d7ced71a95b6911af58a4cb593
dbt2011-11-17d01t14.flac:e15e07f394947e1b6522e43e9f529b2a
dbt2011-11-17d02t01.flac:d63f885e96dae7cfe777420866200ba8
dbt2011-11-17d02t02.flac:6f6a0677c104f0a2e6bb28cba2827da4
dbt2011-11-17d02t03.flac:8b85f606ad113b65ded59373c2d3dac0
dbt2011-11-17d02t04.flac:07d3e2624f7428b0281e1207224197be
dbt2011-11-17d02t05.flac:0942d29602f6471e0ca09198fa014bc2
dbt2011-11-17d02t06.flac:5c45d69ead906927f0986658cbefe632
dbt2011-11-17d02t07.flac:2f505187fd74d815eae28fac1a2e2bdc
dbt2011-11-17d02t08.flac:bcb1588d8d2ed6a83e6ee875acd16d8e
dbt2011-11-17d02t09.flac:01c1731d428b3364c9b3f52c2a1474e4
dbt2011-11-17d02t10.flac:7f1ab82319d275049f424d0f05952e65
dbt2011-11-17d02t11.flac:17b4eb4e3cd73bc888b4bd8211b43498

Shntool

    length     expanded size    cdr  WAVE problems  fmt   ratio  filename
     2:31.06       26650556 B   ---   --   ---xx   flac  0.3960  dbt2011-11-17d01t01.flac
     6:17.43       66603980 B   ---   --   ---xx   flac  0.4736  dbt2011-11-17d01t02.flac
     3:29.22       36919388 B   ---   --   ---xx   flac  0.4802  dbt2011-11-17d01t03.flac
     6:29.48       68732540 B   ---   --   ---xx   flac  0.4868  dbt2011-11-17d01t04.flac
     2:48.69       29797532 B   ---   --   ---xx   flac  0.5100  dbt2011-11-17d01t05.flac
     6:42.09       70934012 B   ---   --   ---xx   flac  0.4239  dbt2011-11-17d01t06.flac
     3:18.64       35077772 B   ---   --   ---xx   flac  0.4232  dbt2011-11-17d01t07.flac
     5:26.18       57548780 B   ---   --   ---xx   flac  0.4718  dbt2011-11-17d01t08.flac
     5:02.03       53279900 B   ---   --   ---xx   flac  0.4277  dbt2011-11-17d01t09.flac
     4:28.23       47329340 B   ---   --   ---xx   flac  0.4556  dbt2011-11-17d01t10.flac
     5:50.50       61857644 B   ---   --   ---xx   flac  0.4631  dbt2011-11-17d01t11.flac
     4:38.07       49055708 B   ---   --   ---xx   flac  0.4650  dbt2011-11-17d01t12.flac
     2:59.63       31723820 B   ---   --   ---xx   flac  0.4028  dbt2011-11-17d01t13.flac
     7:38.53       80915900 B   ---   --   ---xx   flac  0.4211  dbt2011-11-17d01t14.flac
     5:40.49       60091292 B   ---   --   ---xx   flac  0.4845  dbt2011-11-17d02t01.flac
     4:49.02       50984348 B   ---   --   ---xx   flac  0.4672  dbt2011-11-17d02t02.flac
     4:15.28       45047900 B   ---   --   ---xx   flac  0.3910  dbt2011-11-17d02t03.flac
     6:40.70       70724684 B   ---   --   ---xx   flac  0.4793  dbt2011-11-17d02t04.flac
     0:43.05        7597004 B   ---   --   ---xx   flac  0.3672  dbt2011-11-17d02t05.flac
     5:23.33       57054860 B   ---   --   ---xx   flac  0.4679  dbt2011-11-17d02t06.flac
     5:57.29       63043052 B   ---   --   ---xx   flac  0.4525  dbt2011-11-17d02t07.flac
     5:39.61       59943116 B   ---   --   ---xx   flac  0.5124  dbt2011-11-17d02t08.flac
     6:33.16       69362876 B   ---   --   ---xx   flac  0.4777  dbt2011-11-17d02t09.flac
     4:51.17       51372428 B   ---   --   ---xx   flac  0.5255  dbt2011-11-17d02t10.flac
     7:47.68       82538780 B   ---   --   ---xx   flac  0.3885  dbt2011-11-17d02t11.flac
   126:03.31     1334187212 B                            0.4561  (25 files)





Show Checksums
ffp
dbt2011-11-17d01t01.flac:fa7aeaa551b7f5c1c45a9f473500a843
dbt2011-11-17d01t02.flac:1b081e2a9c0c291dbb75fffea0c135e7
dbt2011-11-17d01t03.flac:3fb0c333cf19aa435708d0615551cd43
dbt2011-11-17d01t04.flac:6cbf2dee43e6d266aa97940fe8bd96d0
dbt2011-11-17d01t05.flac:fe6d9c22e4e506da1c7b0c8bbb6e47e4
dbt2011-11-17d01t06.flac:92d72a31f07e7106faccc33d5b069c76
dbt2011-11-17d01t07.flac:d4fdd8c496e6ca7baab819c7760438cc
dbt2011-11-17d01t08.flac:b715ff42d6049fa94d02801c9581f9c5
dbt2011-11-17d01t09.flac:7949ae191b2ad41f0777fd01da9e6a71
dbt2011-11-17d01t10.flac:5c304bd9c2f89ff86a6e0308cdbbcdc4
dbt2011-11-17d01t11.flac:20b054195c2efcb4eb9c3b1a0f1c027a
dbt2011-11-17d01t12.flac:17417bf4188566d75fc1de90e3e142f8
dbt2011-11-17d01t13.flac:536105d7ced71a95b6911af58a4cb593
dbt2011-11-17d01t14.flac:e15e07f394947e1b6522e43e9f529b2a
dbt2011-11-17d02t01.flac:d63f885e96dae7cfe777420866200ba8
dbt2011-11-17d02t02.flac:6f6a0677c104f0a2e6bb28cba2827da4
dbt2011-11-17d02t03.flac:8b85f606ad113b65ded59373c2d3dac0
dbt2011-11-17d02t04.flac:07d3e2624f7428b0281e1207224197be
dbt2011-11-17d02t05.flac:0942d29602f6471e0ca09198fa014bc2
dbt2011-11-17d02t06.flac:5c45d69ead906927f0986658cbefe632
dbt2011-11-17d02t07.flac:2f505187fd74d815eae28fac1a2e2bdc
dbt2011-11-17d02t08.flac:bcb1588d8d2ed6a83e6ee875acd16d8e
dbt2011-11-17d02t09.flac:01c1731d428b3364c9b3f52c2a1474e4
dbt2011-11-17d02t10.flac:7f1ab82319d275049f424d0f05952e65
dbt2011-11-17d02t11.flac:17b4eb4e3cd73bc888b4bd8211b43498

Comments
Add Comment
Other Sources (comments)
flac16;Source: AKG... (0) Source: Microtech Gefell... (0) flac24:Source: AKG... (0)
Date User Comment