Browse Collections Artists Sources   Search Dates

Add Show    List Management    Help


Drive-By Truckers 10/28/11
The Pageant Theatre, St. Louis, MO
Comments Add Comment    Source Collectors    Add to Collection    Add to Want List    History
Source # 128708 Other Sources
Entered by ziko
Checksums ffp
Disc Counts 0 / 0
Media Size
Date Circulated
Date Added
11/12/2011
05/17/2014
Source Summary Source - mxl993s>oade mod ua-5+Tascam dr-2d internals - on a stand inside right SBD on first raised teir (lowgain, 8ohz bass rolloff, @ 48/24 wav > Vol-norm(7.70 db, add markers, fade in/out, split by markers) in goldwave > TLH(level=6) for flacs 
Source Information - Download Text | Download Zip
Drive By Truckers
The Pageant
2011-10-28
St. Louis, MO


Source - mxl993s>oade mod ua-5+Tascam dr-2d internals - on a stand inside right SBD on first raised teir (lowgain, 8ohz bass rolloff, @ 48/24 wav > Vol-norm(7.70 db, add markers, fade in/out, split by markers) in goldwave > TLH(level=6) for flacs

taped by : Jeremy (telepicker97/drivingwheel
transferred by : hucklive

Fourth Night of My Drinking
Devil Don't Stay
Play It All Night Long
3 Dimes Down
Lookout Mountain
When The Pin Hits The Shell
Used To Be A Cop
Self Destructive Zones
The Company I Keep
Get Downtown
Sinkhole
Uncle Frank
Dancin' Ricky
Everybody Needs Love
Cartoon Gold
Box of Spiders
Carl Perkins' Cadillac (w/Cooley tv rant)
World of Hurt

E:

Marry Me
(Hell No) I Ain't happy
Shut Up And Get On The Plane
People who Died*

DBT:
Patterson Hood - guitar, vocals, bass
Mike "The Stroker Ace" Cooley - guitar, vocals, bass
John Neff - guitar, pedal steel guitar, vocals
Shonna Tucker - bass, vocals, guitar
Brad "EZB" Morgan - drums
Jay Gonzalez - keyboards, vocals

*w/Kelly Darlin on guitar and vocals

Those Darlins opened

http://www.drivebytruckers.com/


Fight the Loudness War!

**********************************************
Please share this recording freely, never sell, do not encode to .mp3 (or other lossy formats) unless it's for personal use, and as Ribblefribbitz says : "Please do not convert to Edison tin cylinders or 78 rpm wax discs."

SUPPORT TRADE-FRIENDLY ARTISTS : Support Live Music - buy records and merchandise.




shntool 3.0.4
Copyright (C) 2000-2007 Jason Jordan <[email protected]>

    length     expanded size    cdr  WAVE problems  fmt   ratio  filename
     4:55.09       52059212 B   ---   --   ---xx   flac  0.5611  dbt-2011-10-28-t01.flac
     4:56.02       52219148 B   ---   --   ---xx   flac  0.6010  dbt-2011-10-28-t02.flac
     5:41.28       60218300 B   ---   --   ---xx   flac  0.5759  dbt-2011-10-28-t03.flac
     2:49.29       29879852 B   ---   --   ---xx   flac  0.6191  dbt-2011-10-28-t04.flac
     4:52.16       51546476 B   ---   --   ---xx   flac  0.5953  dbt-2011-10-28-t05.flac
     4:00.25       42394844 B   ---   --   ---xx   flac  0.4807  dbt-2011-10-28-t06.flac
     6:17.06       66516956 B   ---   --   ---xx   flac  0.5699  dbt-2011-10-28-t07.flac
     3:42.24       39217292 B   ---   --   ---xx   flac  0.5995  dbt-2011-10-28-t08.flac
     5:16.17       55782428 B   ---   --   ---xx   flac  0.5450  dbt-2011-10-28-t09.flac
     2:16.45       24096284 B   ---   --   ---xx   flac  0.5214  dbt-2011-10-28-t10.flac
     3:23.63       35957420 B   ---   --   ---xx   flac  0.5917  dbt-2011-10-28-t11.flac 48:11 72:52
     5:20.46       56556236 B   ---   --   ---xx   flac  0.5691  dbt-2011-10-28-t12.flac 53:32 67:31
     5:26.64       57656972 B   ---   --   ---xx   flac  0.5804  dbt-2011-10-28-t13.flac 58:58 62:04
     3:15.27       34461548 B   ---   --   ---xx   flac  0.5194  dbt-2011-10-28-t14.flac 62:14 58:48
     6:37.36       70115516 B   ---   --   ---xx   flac  0.5303  dbt-2011-10-28-t15.flac 68:51 52:11
     3:11.00       33692444 B   ---   --   ---xx   flac  0.5414  dbt-2011-10-28-t16.flac 72:03 49:00
     5:17.46       56027036 B   ---   --   ---xx   flac  0.4814  dbt-2011-10-28-t17.flac 77:20 43:42
     6:17.20       66549884 B   ---   --   ---xx   flac  0.5502  dbt-2011-10-28-t18.flac
    11:53.02      125777948 B   ---   --   ---xx   flac  0.5116  dbt-2011-10-28-t19.flac
     5:40.45       60081884 B   ---   --   ---xx   flac  0.6177  dbt-2011-10-28-t20.flac
     7:41.01       81322796 B   ---   --   ---xx   flac  0.5910  dbt-2011-10-28-t21.flac
     5:11.32       54935708 B   ---   --   ---xx   flac  0.6197  dbt-2011-10-28-t22.flac
     6:58.62       73881068 B   ---   --   ---xx   flac  0.6075  dbt-2011-10-28-t23.flac
   121:01.45     1280947252 B                            0.5633  (23 files)

Show Checksums
ffp
9349361656f71b1285b253b13430d077 *dbt-2011-10-28-t01.flac
7904e0f6e2e1850cf010fbda20ea8883 *dbt-2011-10-28-t02.flac
241ff085cc432ac7a4611255c949a997 *dbt-2011-10-28-t03.flac
694f67414912bb3ed4b0d01d658a7ec8 *dbt-2011-10-28-t04.flac
0d3f60b6bb32eb82ac2638a9c2476744 *dbt-2011-10-28-t05.flac
e6dfad5703fc071d209a00ec7e1d30f2 *dbt-2011-10-28-t06.flac
b0e18a2ca75534d9f6908a9582be37cd *dbt-2011-10-28-t07.flac
09b0ca630700465d43430bb8291c6d90 *dbt-2011-10-28-t08.flac
18f295605d2943518b801611097a87f2 *dbt-2011-10-28-t09.flac
a77965a9ff377fa6d9bb9eea5bf16ba6 *dbt-2011-10-28-t10.flac
53547abb40f95bcf1d0f7d557a7b42ac *dbt-2011-10-28-t11.flac
2546e5d718e17a33b49c3b17cfed595b *dbt-2011-10-28-t12.flac
7e91ab61e4422a4dcd4ca456cef59ddc *dbt-2011-10-28-t13.flac
359b90089c9812c09efeba9aeb68e02a *dbt-2011-10-28-t14.flac
7d216d33479cc5b909a916792fcd0a52 *dbt-2011-10-28-t15.flac
71f4ac0eb9af8499f5b55efdb766227d *dbt-2011-10-28-t16.flac
92dd637bc2021517ef48056544105283 *dbt-2011-10-28-t17.flac
6976f4e201e6d602a34c4b6d002c84cb *dbt-2011-10-28-t18.flac
b12a3d7cab6ce78b4d16b0af7281d831 *dbt-2011-10-28-t19.flac
d8518f3d5b7418ec299ac43ced3d5d29 *dbt-2011-10-28-t20.flac
ddd2ea39d102e6c275c08f2a8b9275ae *dbt-2011-10-28-t21.flac
089b7ad0c1872755c877a75df4f0b71b *dbt-2011-10-28-t22.flac
b8401143492a8a0bbb33ed6b5760f98f *dbt-2011-10-28-t23.flac

Comments
Add Comment
Date User Comment