Browse Collections Artists Sources   Search Dates

Add Show    List Management    Help


Grateful Dead 07/13/81
McNichols Sports Arena, Denver, CO
Comments Add Comment    Source Collectors    Add to Collection    Add to Want List    History
Source # 128714 Other Sources
Entered by Gary Field
Checksums flac-md5 , ffp
Disc Counts 2 / 3
Media Size Compressed: 973.86 MB (1021167584 bytes)
Date Circulated
Date Added
5/18/2014
05/17/2014
Source Summary flac16; Recording and transfer info: SBD > MC? > C? > C? > C > CD; CD > wav > Sound Forge 10 > TLH > flac 
  Archive
Source Information - Download Text | Download Zip
THE GRATEFUL DEAD
McNichols Sports Arena
Denver, CO.
July 13, 1981

Recording and transfer info:
SBD > MC? > C? > C? > C > CD
CD > wav > Sound Forge 10 > TLH > flac

FIXES AND NOTES:
This is an upgrade of shnid 3903. Unknown data base lineage.
Could be one or two additional gens. I am guessing.
Shnid 3903 has heavy handed EQ and NR applied, and has been
corrected as much as possible.
Vocals were extremely "Hot" and are slightly distorted. Have now
been attenuated to match band for proper levels balance.
Pitch on all tracks was adjusted and is now correct...play along.
This is an extremely scarce show and I could not locate an aud to
use for patches. Overall, a big improvement...Enjoy.

Disc 1, track 1 - 1st verse missing
Disc 2, track 2 - fades out
Disc 2, track 6 - "Space" missing
Disc 3, track 2 - fades out

Transferred and mastered by Bill Guarneri, May 17, 2014

Set 1, Disc 1
01. Feel Like A Stranger
02. They Love Each Other
03. El Paso
04. Jack A Roe
05. Beat It On Down The Line
06. It Must Have Been The Roses
07. C.C. Rider
08. Althea
09. Looks Like Rain
10. Deal

Set 2, Disc 2
01. Women Are Smarter >
02. Scarlet Begonias >
03. Fire On The Mountain >
04. Estimated Prophet >
05. Terrapin Station >
06. Drums ( Space Missing)

Set 2, Disc 3
01. Not Fade Away
02. Black Peter
03. Sugar Magnolia
Encore:
04. (I Can't Get No) Satisfaction

length     expanded size    cdr  WAVE problems  fmt   ratio  filename
     7:11.70       76193084 B   ---   --   ---xx   flac  0.6490  gd1981-07-13d1t01.flac
     6:48.30       72041804 B   ---   --   ---xx   flac  0.6855  gd1981-07-13d1t02.flac
     5:10.72       54853388 B   ---   --   ---xx   flac  0.6672  gd1981-07-13d1t03.flac
     4:04.66       43196876 B   ---   --   ---xx   flac  0.7199  gd1981-07-13d1t04.flac
     3:13.20       34092284 B   ---   --   ---xx   flac  0.7097  gd1981-07-13d1t05.flac
     6:44.48       71378540 B   ---   --   ---xx   flac  0.6525  gd1981-07-13d1t06.flac
     7:48.21       82604636 B   ---   --   ---xx   flac  0.6752  gd1981-07-13d1t07.flac
     8:36.43       91123580 B   ---   --   ---xx   flac  0.6498  gd1981-07-13d1t08.flac
     7:57.71       84309836 B   ---   --   ---xx   flac  0.6337  gd1981-07-13d1t09.flac
     8:12.16       86826476 B   ---   --   ---xx   flac  0.6472  gd1981-07-13d1t10.flac
     4:53.53       51809900 B   ---   --   ---xx   flac  0.6383  gd1981-07-13d2t01.flac
     9:46.39      103462172 B   ---   --   ---xx   flac  0.6412  gd1981-07-13d2t02.flac
     9:41.38      102577820 B   ---   --   ---xx   flac  0.6256  gd1981-07-13d2t03.flac
    10:16.61      108805916 B   ---   --   ---xx   flac  0.6029  gd1981-07-13d2t04.flac
    14:05.06      149072156 B   ---   --   ---xx   flac  0.5785  gd1981-07-13d2t05.flac
     6:16.61       66469916 B   ---   --   ---xx   flac  0.5428  gd1981-07-13d2t06.flac
     9:09.34       96923612 B   ---   --   ---xx   flac  0.5682  gd1981-07-13d3t01.flac
     9:04.08       95980460 B   ---   --   ---xx   flac  0.5380  gd1981-07-13d3t02.flac
     9:00.28       95321900 B   ---   --   ---xx   flac  0.6285  gd1981-07-13d3t03.flac
     5:55.70       62786684 B   ---   --   ---xx   flac  0.6551  gd1981-07-13d3t04.flac
   153:59.30     1629831040 B                            0.6265  (20 files)



Show Checksums
flac-md5
b670487bee5643aea02a2340e17e9bad *gd1981-07-13d1t01.flac
189d0324cb76b6dd9ee643d462313ef1 *gd1981-07-13d1t02.flac
4090e07496de423f2d02df195740ee22 *gd1981-07-13d1t03.flac
da13972cde22a003f9382c34310cf395 *gd1981-07-13d1t04.flac
91d29af1599714c620d7332fc5408dbd *gd1981-07-13d1t05.flac
cccfa413f8cc77c0389465abd7843ce6 *gd1981-07-13d1t06.flac
9916c0bb0eacf67b1794914fef0ec02f *gd1981-07-13d1t07.flac
fee989c9bf9fd0a293af048cf3469d21 *gd1981-07-13d1t08.flac
0a0b7ba155af45783b75baed7ba571bf *gd1981-07-13d1t09.flac
75d86aee132a9af7d84cf10a976d738a *gd1981-07-13d1t10.flac
b023232bc5f3aa1f32be3fb88a0e7bd1 *gd1981-07-13d2t01.flac
f7b43c8947e36a8e61f319515eaa2f16 *gd1981-07-13d2t02.flac
4573722b15898340228822239ab51181 *gd1981-07-13d2t03.flac
cd050b7265e8e3e664e1b50f28ef008c *gd1981-07-13d2t04.flac
30b8b6525827675f71c369be532f2b0d *gd1981-07-13d2t05.flac
234e4d4ca651108af14140a5864ae581 *gd1981-07-13d2t06.flac
af70481006955247dca3f216909331ba *gd1981-07-13d3t01.flac
43610d25d7e46d7e5f81e22535712665 *gd1981-07-13d3t02.flac
0bbca7338f7b6dc6b3520de84b50138a *gd1981-07-13d3t03.flac
8e84a960f692fbfa3d54ee44f7f6edc6 *gd1981-07-13d3t04.flac
ffp
gd1981-07-13d1t01.flac:d805ce7a45827a08e9de0c23c35f2313
gd1981-07-13d1t02.flac:822f1f534477eace07b5f1a454f0be68
gd1981-07-13d1t03.flac:4bd2e5f7752aa1fd72e6f3eb8054b03b
gd1981-07-13d1t04.flac:1abfb7fd95a39b1c79ef6a0d14e294e2
gd1981-07-13d1t05.flac:f2ba97aeeca54896c81bd7fcb6b0e9c0
gd1981-07-13d1t06.flac:38eab0e63eff44e573b6e5d14adcbf20
gd1981-07-13d1t07.flac:35ca542e96e10f3f54ab9e22bd459bdf
gd1981-07-13d1t08.flac:95d95afb21b29209085131f2ad385460
gd1981-07-13d1t09.flac:f1735f7114c2fedfee5fa808a10e2101
gd1981-07-13d1t10.flac:f3d64a010ef2ae97ed7a1a43175d13fb
gd1981-07-13d2t01.flac:81492a315fe74dcf794d315605a7d8f3
gd1981-07-13d2t02.flac:cb8580e56bb1fc91042ab70ff869b52c
gd1981-07-13d2t03.flac:98f903e986aa6ed4bc7443bbd4a5a493
gd1981-07-13d2t04.flac:8594ec4dfacb8c729bdad215f1cef37f
gd1981-07-13d2t05.flac:8ee1252103c7989aaaf63085aae8cb7b
gd1981-07-13d2t06.flac:fdb5ad7192e31cb090b51e9043139163
gd1981-07-13d3t01.flac:153e2896d4eba2b7d5879b04df8afdee
gd1981-07-13d3t02.flac:b243460165c4caae44368ba0216f07e4
gd1981-07-13d3t03.flac:0595ede0a365bf7305596448fe5101ff
gd1981-07-13d3t04.flac:221f087b1567ad12393a1d0f910f6320

Comments
Add Comment
Other Sources (comments)
SBD; via Mike Lai (1) flac24; Set 2... (0) flac16; Set 2... (0) flac24; AUD:... (0) flac16; AUD:... (0) flac24; source: SBD;... (0) flac16; source: SBD;... (0) flac16; Source Info:... (0)
Date User Comment