Browse Collections Artists Sources   Search Dates

Add Show    List Management    Help


Grateful Dead 03/07/81
Cole Field House - University of Maryland, College Park, MD
Comments Add Comment    Source Collectors    Add to Collection    Add to Want List    History
Source # 128755 Other Sources
Entered by Matt Vernon
Checksums ffp , orig-ffp , orig-md5 , flac-md5
Disc Counts 0 / 0
Media Size Compressed: 951.71 MB (997943850 bytes)
Uncompressed: 1.65 GB (1769732924 bytes)
Date Circulated
Date Added
05/19/2014
05/19/2014
Source Summary flac16; Recording by Jim Wise: Master Audience Cassette; 2 Sennheiser 421s> Sony D-5; Location: set up at the SBD; Transfer and FLAC encoding by David Minches; Dolby B decoded Master played back on Nakamichi Dragon > Korg MR-1000(DSF [1-bit 5.6448 MHz Stereo]) Korg AudioGate > WAV [24/96] > Adobe Audition 3.0> FLAC encoding 
  Archive
Source Information - Download Text | Download Zip
Grateful Dead
March 7, 1981
Cole Field House - University of Maryland,
College Park, MD

Recording by Jim Wise:
Master Audience Cassette; 2 Sennheiser 421s> Sony D-5
Location: set up at the SBD

Transfer and FLAC encoding by David Minches: May 2014
Dolby B decoded Master played back on Nakamichi Dragon > Korg MR-1000(DSF [1-bit 5.6448 MHz Stereo])
Korg AudioGate > WAV [24/96] > Adobe Audition 3.0> FLAC encoding
____________________________________________________________________________________________________

--Set 1--
s1t01  crowd/tuning
s1t02  Alabama Getaway >
s1t03  Greatest Story Ever Told
s1t04  Dire Wolf
s1t05  Me And My Uncle >
s1t06  Big River
s1t07  Candyman
s1t08  C.C. Rider
s1t09  Jack-A-Roe
s1t10  Passenger
s1t11  Bird Song >
s1t12  Looks Like Rain >
s1t13  Deal

--Set 2--
s2t01  crowd
s2t02  Aiko Aiko >
s2t03  Lost Sailor >
s2t04  Saint of Circumstance >
s2t05  Jam >
s2t06  Drums >
s2t07  Space >
s2t08  Truckin'>
s2t09  Black Peter >
s2t10  Around & Around >
s2t11  Johnny B. Goode

--Encore--
s2t12  One More Saturday Night
____________________________________________________________________________________________________

Tagging notes:
Show information is embedded within the headerof each flac file.
It will display on any player capable of directly playing flac files.
If converted to wav during processing, all tags will be stripped,
however audio data will remain unaffected.
If you must transcode to a lossy format, do so directly Flac > Lossy.
Use ffp to validate audio integrity.
Md5 values will change if tagging is altered.
B. Proctor 5/19/2014
____________________________________________________________________________________________________

    length     expanded size    cdr  WAVE problems  fmt   ratio  filename
     1:51.67       19738028 B   ---   --   ---xx   flac  0.5026  d01t01 - Tuning.flac
     5:39.20       59846684 B   ---   --   ---xx   flac  0.5820  d01t02 - Alabama Getaway.flac
     5:33.61       58884716 B   ---   --   ---xx   flac  0.5441  d01t03 - Greatest Story Ever Told.flac
     3:51.17       40788428 B   ---   --   ---xx   flac  0.5566  d01t04 - Dire Wolf.flac
     2:52.44       30444332 B   ---   --   ---xx   flac  0.5783  d01t05 - Me and My Uncle.flac
     6:27.41       68363276 B   ---   --   ---xx   flac  0.5662  d01t06 - Big River.flac
     7:06.57       75280508 B   ---   --   ---xx   flac  0.5346  d01t07 - Candyman.flac
     8:34.59       90808412 B   ---   --   ---xx   flac  0.5495  d01t08 - C.C. Rider.flac
     6:48.21       72020636 B   ---   --   ---xx   flac  0.5756  d01t09 - Jack-A-Roe.flac
     5:15.01       55568396 B   ---   --   ---xx   flac  0.6095  d01t10 - Passenger.flac
    17:00.43      180029180 B   ---   --   ---xx   flac  0.5729  d01t11 - Birdsong.flac
     7:45.49       82141292 B   ---   --   ---xx   flac  0.5665  d01t12 - Looks Like Rain.flac
     9:49.00      103899644 B   ---   --   ---xx   flac  0.6065  d01t13 - Deal.flac
     0:21.57        3838508 B   ---   --   ---xx   flac  0.4881  d02t01 - Tuning.flac
     7:22.25       78027644 B   ---   --   ---xx   flac  0.5906  d02t02 - Aiko Aiko.flac
     6:04.69       64371932 B   ---   --   ---xx   flac  0.5457  d02t03 - Lost Sailor.flac
     8:52.45       93950684 B   ---   --   ---xx   flac  0.5892  d02t04 - St. of Circumstance.flac
     9:43.33      102918860 B   ---   --   ---xx   flac  0.5533  d02t05 - Jam.flac
     6:20.70       67196684 B   ---   --   ---xx   flac  0.5041  d02t06 - Drums.flac
     6:48.52       72093548 B   ---   --   ---xx   flac  0.4739  d02t07 - Space.flac
    10:43.33      113502860 B   ---   --   ---xx   flac  0.5710  d02t08 - Truckin'.flac
     9:09.17       96883628 B   ---   --   ---xx   flac  0.5192  d02t09 - Black Peter.flac
     3:49.04       40405052 B   ---   --   ---xx   flac  0.5741  d02t10 - Around and Around.flac
     4:46.12       50478668 B   ---   --   ---xx   flac  0.6039  d02t11 - Johnny B. Goode.flac
     4:33.40       48251324 B   ---   --   ---xx   flac  0.5975  d02t12 - One More Saturday Night.flac
   167:12.37     1769732924 B                            0.5622  (25 files)




Show Checksums
ffp
d01t01.flac:df2cb576ded7a8270977f94e0c818b8b
d01t02.flac:90ad6e09e41ff68f2847c007c30486a3
d01t03.flac:2aebc6b1860f6d6ba09ac2bf2548c4b2
d01t04.flac:2ef58cc903d67517422d1e4602723cc6
d01t05.flac:8a47919d55226226dffd07f270bda3b3
d01t06.flac:92bb0b2873efcfed0c0fa986562d95cc
d01t07.flac:f75eb614aaba60574f2be32737d375d6
d01t08.flac:a5e5abb4a43da7bea06541e4f7912100
d01t09.flac:5c02b4e62d3945adc4d4511eb89f4954
d01t10.flac:a3b076296c68b515c400f1ac20ecb7a4
d01t11.flac:481392faad8025f045051d22f2ab0a17
d01t12.flac:290b8fb1851c0aa55c77e58a768e67c7
d01t13.flac:b9402068e089973af5d7bac567d9051f
d02t01.flac:b98e4356fa7d4cc0afad46a619dca5b5
d02t02.flac:0b92116b62464c088935cfe9d7902496
d02t03.flac:9e95a373169d828bb9f9c98c4ee3b352
d02t04.flac:b49f4d2ec295886437cc770a618e9e39
d02t05.flac:ca8d31bcef688ebf07e6c91ba183474d
d02t06.flac:67a89c8a3d66d17d5d82fb4dfdfa4a54
d02t07.flac:cb565c3bf0f9de5abda279daaa95e644
d02t08.flac:98c0a6c8051b91cdba9011a408a15d60
d02t09.flac:7cabdfb638c0acfb0ae60dc27f93d824
d02t10.flac:e36a13256d99361f07a4d87e6ae05ff9
d02t11.flac:99309e20e5233c311af6eb1af58b92bb
d02t12.flac:89294f9000f48e717ae95409777aebd4
orig-ffp
d01t01 - Tuning.flac:df2cb576ded7a8270977f94e0c818b8b
d01t02 - Alabama Getaway.flac:90ad6e09e41ff68f2847c007c30486a3
d01t03 - Greatest Story Ever Told.flac:2aebc6b1860f6d6ba09ac2bf2548c4b2
d01t04 - Dire Wolf.flac:2ef58cc903d67517422d1e4602723cc6
d01t05 - Me and My Uncle.flac:8a47919d55226226dffd07f270bda3b3
d01t06 - Big River.flac:92bb0b2873efcfed0c0fa986562d95cc
d01t07 - Candyman.flac:f75eb614aaba60574f2be32737d375d6
d01t08 - C.C. Rider.flac:a5e5abb4a43da7bea06541e4f7912100
d01t09 - Jack-A-Roe.flac:5c02b4e62d3945adc4d4511eb89f4954
d01t10 - Passenger.flac:a3b076296c68b515c400f1ac20ecb7a4
d01t11 - Birdsong.flac:481392faad8025f045051d22f2ab0a17
d01t12 - Looks Like Rain.flac:290b8fb1851c0aa55c77e58a768e67c7
d01t13 - Deal.flac:b9402068e089973af5d7bac567d9051f
d02t01 - Tuning.flac:b98e4356fa7d4cc0afad46a619dca5b5
d02t02 - Aiko Aiko.flac:0b92116b62464c088935cfe9d7902496
d02t03 - Lost Sailor.flac:9e95a373169d828bb9f9c98c4ee3b352
d02t04 - St. of Circumstance.flac:b49f4d2ec295886437cc770a618e9e39
d02t05 - Jam.flac:ca8d31bcef688ebf07e6c91ba183474d
d02t06 - Drums.flac:67a89c8a3d66d17d5d82fb4dfdfa4a54
d02t07 - Space.flac:cb565c3bf0f9de5abda279daaa95e644
d02t08 - Truckin'.flac:98c0a6c8051b91cdba9011a408a15d60
d02t09 - Black Peter.flac:7cabdfb638c0acfb0ae60dc27f93d824
d02t10 - Around and Around.flac:e36a13256d99361f07a4d87e6ae05ff9
d02t11 - Johnny B. Goode.flac:99309e20e5233c311af6eb1af58b92bb
d02t12 - One More Saturday Night.flac:89294f9000f48e717ae95409777aebd4
orig-md5
b995e7a0159ad70b8a82a8cb619891e6 *d01t01 - Tuning.flac
5061b78d2ada43c7bfcdf9fbc3f24be1 *d01t02 - Alabama Getaway.flac
83c2e0ad61a4e41086ee7d55064ffe60 *d01t03 - Greatest Story Ever Told.flac
1d20cc66e12c3badcee133ff0046b577 *d01t04 - Dire Wolf.flac
9f517f82772927c1cbd242350002e6b9 *d01t05 - Me and My Uncle.flac
22bd74188c147428a13876b85ede3fca *d01t06 - Big River.flac
8017455afd02e0c90a31d6d03594eb86 *d01t07 - Candyman.flac
fd5c5c70a0ca1d013e6ef2f518fd17f4 *d01t08 - C.C. Rider.flac
1fc3a49ce66554388f1d4aa7464a1820 *d01t09 - Jack-A-Roe.flac
c1c1257be367d24a6e19ce0b02ed3cb7 *d01t10 - Passenger.flac
82034191a1b13aa47db6fa501b152293 *d01t11 - Birdsong.flac
ee86949d4d21380a00e42bd7d65809a3 *d01t12 - Looks Like Rain.flac
8d8ba331a9f6fd09b348e2377f5d3895 *d01t13 - Deal.flac
84f0cde0840b9cd06f6edf08aa063a25 *d02t01 - Tuning.flac
6d463b5ff5466f988983599f11535481 *d02t02 - Aiko Aiko.flac
2ee6343d2a8d8ccb1e56e38aeafd9e39 *d02t03 - Lost Sailor.flac
4f9b379cd647de402b44eb16626784ec *d02t04 - St. of Circumstance.flac
a0253b8bc55469db6fc7ef944f191fb1 *d02t05 - Jam.flac
c88496adf7d4f6e973aca4c6876d50f8 *d02t06 - Drums.flac
f0eba8899f05c30d86004d6cd8042097 *d02t07 - Space.flac
cec7b625f2b3e9453243e050036806af *d02t08 - Truckin'.flac
ec8a91e37282474eb3c8a5d94310fdd0 *d02t09 - Black Peter.flac
b073ab97ae21545ced164f32dcc267f8 *d02t10 - Around and Around.flac
bb19614291fe87008db867a7a10d20f8 *d02t11 - Johnny B. Goode.flac
497f6c7fefa5f276bff114bdabfdff1a *d02t12 - One More Saturday Night.flac
flac-md5
b995e7a0159ad70b8a82a8cb619891e6 *d01t01.flac
5061b78d2ada43c7bfcdf9fbc3f24be1 *d01t02.flac
83c2e0ad61a4e41086ee7d55064ffe60 *d01t03.flac
1d20cc66e12c3badcee133ff0046b577 *d01t04.flac
9f517f82772927c1cbd242350002e6b9 *d01t05.flac
22bd74188c147428a13876b85ede3fca *d01t06.flac
8017455afd02e0c90a31d6d03594eb86 *d01t07.flac
fd5c5c70a0ca1d013e6ef2f518fd17f4 *d01t08.flac
1fc3a49ce66554388f1d4aa7464a1820 *d01t09.flac
c1c1257be367d24a6e19ce0b02ed3cb7 *d01t10.flac
82034191a1b13aa47db6fa501b152293 *d01t11.flac
ee86949d4d21380a00e42bd7d65809a3 *d01t12.flac
8d8ba331a9f6fd09b348e2377f5d3895 *d01t13.flac
84f0cde0840b9cd06f6edf08aa063a25 *d02t01.flac
6d463b5ff5466f988983599f11535481 *d02t02.flac
2ee6343d2a8d8ccb1e56e38aeafd9e39 *d02t03.flac
4f9b379cd647de402b44eb16626784ec *d02t04.flac
a0253b8bc55469db6fc7ef944f191fb1 *d02t05.flac
c88496adf7d4f6e973aca4c6876d50f8 *d02t06.flac
f0eba8899f05c30d86004d6cd8042097 *d02t07.flac
cec7b625f2b3e9453243e050036806af *d02t08.flac
ec8a91e37282474eb3c8a5d94310fdd0 *d02t09.flac
b073ab97ae21545ced164f32dcc267f8 *d02t10.flac
bb19614291fe87008db867a7a10d20f8 *d02t11.flac
497f6c7fefa5f276bff114bdabfdff1a *d02t12.flac

Comments
Add Comment
Other Sources (comments)
FOB> Nak 700 mics> Sony... (3) Recording by Jim Wise: Senn... (0) flac16; Recording by... (0) flac24/96; Recording... (0) flac24; Recording by... (0)
Date User Comment