Browse Collections Artists Sources   Search Dates

Add Show    List Management    Help


Drive-By Truckers 02/26/11
Vic Theater, Chicago, IL
Comments Add Comment    Source Collectors    Add to Collection    Add to Want List    History
Source # 128758 Other Sources
Entered by ziko
Checksums ffp
Disc Counts 0 / 0
Media Size
Date Circulated
Date Added
03/12/2011
05/19/2014
Source Summary flac24;Source: Neumann skm140(ORTF/6" LOC/Extended 1' off the balcony rail) > Sound Devices Mixpre > Olympus LS-10(24/48) Transfer: Olympus LS-10(24/48) > Audacity 1.3b(normalize to -0.1dB) > CDWave(Tracking) > FLAC(24/48/Level 8) 
Source Information - Download Text | Download Zip
Drive-By Truckers
2011-02-26
The Vic Theater
Chicago, IL

Source: Neumann skm140(ORTF/6" LOC/Extended 1' off the balcony rail) > Sound Devices Mixpre > Olympus LS-10(24/48)
Transfer: Olympus LS-10(24/48) > Audacity 1.3b(normalize to -0.1dB) > CDWave(Tracking) > FLAC(24/48/Level 8)
Tagging: foobar2000 Live Show Tagger

Recorded By: John Fairbairn
Seeded By: John Fairbairn

******_24bit_******

One Set
=======
1. Intro
2. Ray's Automatic Weapon
3. Uncle Frank
4. Drag The Lake Charlie
5. Gravity's Gone
6. I Do Believe
7. Go Go Boots
8. Cartoon Gold
9. The Deeper In
10. The Weakest Man ->
11. Panties In Your Purse
12. Dancing Ricky
13. The Living Bubba
14. Ghost To Most
15. Goode's Field Road
16. 72 (This Highways Mean)
17. Life In The Factory
18. Birthday Boy
19. Sinkhole
20. Get Downtown
21. (It's Gonna Be) I Told You So
22. He'll No I Ain't Happy
23. callback
Encores
=======
24. Let's Do It Again*
25. Three Dimes Down
26. Let There Be Rock
27. Shut Up And Get On The Plane
28. Angels And Fuselage*

* w/ Kelly Hogan on vocals

******_24bit_******

Notes: Heartless Bastards opened.

    length     expanded size    cdr  WAVE problems  fmt   ratio  filename
     2:52.907      49797164 B   cxx   --   ---xx   flac  0.6294  dbt2011-02-26s1t01.flac
     5:07.413      88535084 B   cxx   --   ---xx   flac  0.6500  dbt2011-02-26s1t02.flac
     5:09.893      89249324 B   cxx   --   ---xx   flac  0.6961  dbt2011-02-26s1t03.flac
     3:49.187      66005804 B   cxx   --   ---xx   flac  0.6766  dbt2011-02-26s1t04.flac
     3:50.853      66485804 B   cxx   --   ---xx   flac  0.6746  dbt2011-02-26s1t05.flac
     3:38.840      63025964 B   cxx   --   ---xx   flac  0.6649  dbt2011-02-26s1t06.flac
     6:58.747     120599084 B   cxx   --   ---xx   flac  0.6382  dbt2011-02-26s1t07.flac
     3:10.480      54858284 B   cxx   --   ---xx   flac  0.6537  dbt2011-02-26s1t08.flac
     3:27.440      59742764 B   cxx   --   ---xx   flac  0.6332  dbt2011-02-26s1t09.flac
     3:42.653      64124204 B   cxx   --   ---xx   flac  0.6284  dbt2011-02-26s1t10.flac
     4:00.253      69193004 B   cxx   --   ---xx   flac  0.6552  dbt2011-02-26s1t11.flac
     3:14.733      56083244 B   cxx   --   ---xx   flac  0.6524  dbt2011-02-26s1t12.flac
     6:21.187     109781804 B   cxx   --   ---xx   flac  0.6776  dbt2011-02-26s1t13.flac
     4:34.693      79111724 B   cxx   --   ---xx   flac  0.6768  dbt2011-02-26s1t14.flac
     7:59.173     138001964 B   cxx   --   ---xx   flac  0.6565  dbt2011-02-26s1t15.flac
     5:45.880      99613484 B   cxx   --   ---xx   flac  0.6618  dbt2011-02-26s1t16.flac
     6:01.520     104117804 B   cxx   --   ---xx   flac  0.7046  dbt2011-02-26s1t17.flac
     3:36.760      62426924 B   cxx   --   ---xx   flac  0.7024  dbt2011-02-26s1t18.flac
     5:04.307      87640364 B   cxx   --   ---xx   flac  0.6837  dbt2011-02-26s1t19.flac
     3:24.920      59017004 B   cxx   --   ---xx   flac  0.6962  dbt2011-02-26s1t20.flac
     2:03.867      35673644 B   cxx   --   ---xx   flac  0.6985  dbt2011-02-26s1t21.flac
     7:45.200     133977644 B   cxx   --   ---xx   flac  0.6945  dbt2011-02-26s1t22.flac
     6:51.373     118475564 B   cxx   --   ---xx   flac  0.6122  dbt2011-02-26s1t23.flac
     5:27.347      94275884 B   cxx   --   ---xx   flac  0.6640  dbt2011-02-26s1t24.flac
     2:55.373      50507564 B   cxx   --   ---xx   flac  0.7075  dbt2011-02-26s1t25.flac
     7:00.907     121221164 B   cxx   --   ---xx   flac  0.6968  dbt2011-02-26s1t26.flac
     4:37.200      79833644 B   cxx   --   ---xx   flac  0.7259  dbt2011-02-26s1t27.flac
    10:37.144     183497516 B   cxx   --   ---xx   flac  0.6468  dbt2011-02-26s1t28.flac
   139:10.251    2404873424 B                            0.6686  (28 files)

dbt2011-02-26s1t01.flac:3fad5107cea3c30cfdaf0c1b11d89dbf
dbt2011-02-26s1t02.flac:df3f7aea7c07570eb2cc67c4f2b8a44c
dbt2011-02-26s1t03.flac:f7a1d8fa588f7e74675635ebe665c34f
dbt2011-02-26s1t04.flac:46a3926ca2b70260401af631145c8b8a
dbt2011-02-26s1t05.flac:dd61923fe6c7be62badb8a6fb26518c2
dbt2011-02-26s1t06.flac:1b8bd93b5e8ac19689f867a97b30380a
dbt2011-02-26s1t07.flac:65b548a6e46971efc516fd5f47d9a820
dbt2011-02-26s1t08.flac:0f1a6f94f79c36a0a4a0d189c6591db3
dbt2011-02-26s1t09.flac:0333b9ad490099046ef580d6f4860641
dbt2011-02-26s1t10.flac:077855139eef6f97ef63f0db93b3385f
dbt2011-02-26s1t11.flac:5c12db498871b07400259fe0bc7f93b7
dbt2011-02-26s1t12.flac:c5b986d7007df262ea394dba26017b7f
dbt2011-02-26s1t13.flac:a7906c397b3f25c5801feb419004a093
dbt2011-02-26s1t14.flac:ecc2d263c1781fc4838461eaa36031d3
dbt2011-02-26s1t15.flac:a4ca8e7d311e25981a0b32bd9ffa9262
dbt2011-02-26s1t16.flac:d3afa0f10913e41425980ef78346bcc8
dbt2011-02-26s1t17.flac:6cfdc1c3d616778713c83a10a1ddbb7f
dbt2011-02-26s1t18.flac:e68652df97227edf8ccf0365f8e5c440
dbt2011-02-26s1t19.flac:8dba79857c954eabd09f178337bbfc37
dbt2011-02-26s1t20.flac:373aaa830b1ca42867ed79bb46f888d7
dbt2011-02-26s1t21.flac:3eca52c08149819e8910fbed24e0d544
dbt2011-02-26s1t22.flac:5f62f33697fcd30cb962e165f17c9cc7
dbt2011-02-26s1t23.flac:93cdf5c4a3c0cdc65e6ba6c7e2493fd1
dbt2011-02-26s1t24.flac:e5413b4eaf5d0c72a6037038dbfb7965
dbt2011-02-26s1t25.flac:6724e01d05b1c916f875c0ca4c8ac7ee
dbt2011-02-26s1t26.flac:634a7dc4e850a594807f0f83aa1ee7c1
dbt2011-02-26s1t27.flac:ef667b306238225cc85660e9430c1328
dbt2011-02-26s1t28.flac:285c66fcccc19de36eebad8c77fe749b


Show Checksums
ffp
dbt2011-02-26s1t01.flac:3fad5107cea3c30cfdaf0c1b11d89dbf
dbt2011-02-26s1t02.flac:df3f7aea7c07570eb2cc67c4f2b8a44c
dbt2011-02-26s1t03.flac:f7a1d8fa588f7e74675635ebe665c34f
dbt2011-02-26s1t04.flac:46a3926ca2b70260401af631145c8b8a
dbt2011-02-26s1t05.flac:dd61923fe6c7be62badb8a6fb26518c2
dbt2011-02-26s1t06.flac:1b8bd93b5e8ac19689f867a97b30380a
dbt2011-02-26s1t07.flac:65b548a6e46971efc516fd5f47d9a820
dbt2011-02-26s1t08.flac:0f1a6f94f79c36a0a4a0d189c6591db3
dbt2011-02-26s1t09.flac:0333b9ad490099046ef580d6f4860641
dbt2011-02-26s1t10.flac:077855139eef6f97ef63f0db93b3385f
dbt2011-02-26s1t11.flac:5c12db498871b07400259fe0bc7f93b7
dbt2011-02-26s1t12.flac:c5b986d7007df262ea394dba26017b7f
dbt2011-02-26s1t13.flac:a7906c397b3f25c5801feb419004a093
dbt2011-02-26s1t14.flac:ecc2d263c1781fc4838461eaa36031d3
dbt2011-02-26s1t15.flac:a4ca8e7d311e25981a0b32bd9ffa9262
dbt2011-02-26s1t16.flac:d3afa0f10913e41425980ef78346bcc8
dbt2011-02-26s1t17.flac:6cfdc1c3d616778713c83a10a1ddbb7f
dbt2011-02-26s1t18.flac:e68652df97227edf8ccf0365f8e5c440
dbt2011-02-26s1t19.flac:8dba79857c954eabd09f178337bbfc37
dbt2011-02-26s1t20.flac:373aaa830b1ca42867ed79bb46f888d7
dbt2011-02-26s1t21.flac:3eca52c08149819e8910fbed24e0d544
dbt2011-02-26s1t22.flac:5f62f33697fcd30cb962e165f17c9cc7
dbt2011-02-26s1t23.flac:93cdf5c4a3c0cdc65e6ba6c7e2493fd1
dbt2011-02-26s1t24.flac:e5413b4eaf5d0c72a6037038dbfb7965
dbt2011-02-26s1t25.flac:6724e01d05b1c916f875c0ca4c8ac7ee
dbt2011-02-26s1t26.flac:634a7dc4e850a594807f0f83aa1ee7c1
dbt2011-02-26s1t27.flac:ef667b306238225cc85660e9430c1328
dbt2011-02-26s1t28.flac:285c66fcccc19de36eebad8c77fe749b

Comments
Add Comment
Other Sources (comments)
Source: Neumann... (0) Source: Busman BSC1/K31 >... (0)
Date User Comment