Browse Collections Artists Sources   Search Dates

Add Show    List Management    Help


Grateful Dead 10/02/81
Rainbow Theater, London, England
Comments Add Comment    Source Collectors    Add to Collection    Add to Want List    History
Source # 128794 Other Sources
Entered by Gary Field
Checksums flac-md5 , ffp
Disc Counts 2 / 3
Media Size Compressed: 858.02 MB (899702668 bytes)
Date Circulated
Date Added
05.22.2014
05/22/2014
Source Summary flac16; Recording and transfer info: SBD > MC? > C > C; C > wav > Sound Forge 10 > TLH > flac 
  Archive
Source Information - Download Text | Download Zip
THE GRATEFUL DEAD
The Rainbow Theatre
London, England
October 2, 1981

Recording and transfer info:
SBD > MC? > C > C
C > wav > Sound Forge 10 > TLH > flac

FIXES AND NOTES:
Disc 1, track 1, 2 small aud patches
Disc 1, track 2, small aud patch
Disc 1, track 6, aud patch from last verse to end
Disc 1, tracks 7, 8, are aud recording, (sbd missing)
Disc 2, track 1, small aud patch
Disc 3, track 4, small aud patch
Disc 3, track 4, fades in at start

All patches, plus set 1, tracks 7 and 8 are taken from
aud shnid 80289. A huge thanks to that seeder.

This show, a major upgrade to shnid 6147 of 2001, is a great example
of what an unscrupulous person did to "personalize" a tape to tape transfer.
The brief "cuts", probably done in the 1st gen copy were intentional, as the
wav files prove, and, are here forever. I did my best to fill the gaps, and,
while not perfect, at least this fine GD performance is now a near complete
show and is back in circulation.

Got this and several other 1981 shows in a mail trade from a Deadhead in
Germany about fifteen years ago. All are on Maxell XL II 90 minute cassettes.

Transferred, tracked and mastered by Bill Guarneri, May 22, 2014

Set 1, Disc 1
01. New Minglewood Blues
02. Sugaree
03. C. C. Rider
04. Cumberland Blues
05. Cassidy
06. Dire Wolf
07. Mama Tried
08. Mexacali Blues
09. Althea
10. Lost sailor >
11. Saint Of Circumstance

Set 2, Disc 2
01. Playin' In The Band
02. Shakedown Street
03. Bertha >
04. Jam >
05 Drums >
06 Space >
07. Spanish Jam

Set 2, Disc 3
01. Truckin' >
02. Black Peter
03. Sugar Magnolia
Encore
04. U. S. Blues

length     expanded size    cdr  WAVE problems  fmt   ratio  filename
     7:10.16       75889676 B   ---   --   ---xx   flac  0.5686  gd1981-10-02d1t01.flac
    10:37.68      112526780 B   ---   --   ---xx   flac  0.5875  gd1981-10-02d1t02.flac
     6:36.13       69885020 B   ---   --   ---xx   flac  0.5888  gd1981-10-02d1t03.flac
     5:10.50       54801644 B   ---   --   ---xx   flac  0.5622  gd1981-10-02d1t04.flac
     4:52.49       51624092 B   ---   --   ---xx   flac  0.5864  gd1981-10-02d1t05.flac
     3:14.37       34308668 B   ---   --   ---xx   flac  0.5591  gd1981-10-02d1t06.flac
     2:21.69       25034732 B   ---   --   ---xx   flac  0.6687  gd1981-10-02d1t07.flac
     4:47.54       50753852 B   ---   --   ---xx   flac  0.6836  gd1981-10-02d1t08.flac
     8:44.05       92445404 B   ---   --   ---xx   flac  0.6117  gd1981-10-02d1t09.flac
     7:08.01       75501596 B   ---   --   ---xx   flac  0.5716  gd1981-10-02d1t10.flac
     7:18.60       77404364 B   ---   --   ---xx   flac  0.6175  gd1981-10-02d1t11.flac
    11:28.64      121513772 B   ---   --   ---xx   flac  0.5566  gd1981-10-02d2t01.flac
    10:37.69      112529132 B   ---   --   ---xx   flac  0.5236  gd1981-10-02d2t02.flac
     6:56.53       73507100 B   ---   --   ---xx   flac  0.5423  gd1981-10-02d2t03.flac
     4:25.68       46905980 B   ---   --   ---xx   flac  0.5570  gd1981-10-02d2t04.flac
     9:26.10       99865964 B   ---   --   ---xx   flac  0.4504  gd1981-10-02d2t05.flac
     4:49.57       51113708 B   ---   --   ---xx   flac  0.4990  gd1981-10-02d2t06.flac
     4:27.16       47136476 B   ---   --   ---xx   flac  0.4960  gd1981-10-02d2t07.flac
     7:43.65       81826124 B   ---   --   ---xx   flac  0.5460  gd1981-10-02d3t01.flac
    10:56.22      115770188 B   ---   --   ---xx   flac  0.5218  gd1981-10-02d3t02.flac
     8:05.46       85662236 B   ---   --   ---xx   flac  0.5820  gd1981-10-02d3t03.flac
     4:48.72       50972588 B   ---   --   ---xx   flac  0.5639  gd1981-10-02d3t04.flac
   151:49.64     1606979096 B                            0.5599  (22 files)



Show Checksums
flac-md5
0a816e987e391b3496b4cb81c04d9bff *gd1981-10-02d1t01.flac
613b3c4fb2543d6aa5b42bf6a26715d0 *gd1981-10-02d1t02.flac
4c8098e37eee8664132a71309a437c85 *gd1981-10-02d1t03.flac
d40119224556dd99cdca9cabda1cfffc *gd1981-10-02d1t04.flac
be0dc21b9cc91af376334e3c3fad1608 *gd1981-10-02d1t05.flac
c739c4d6052ce1cff09dba632810eab9 *gd1981-10-02d1t06.flac
f125164fdaa90192c38388e6636c1827 *gd1981-10-02d1t07.flac
1bb9e8f39460aca5ae4016d5ae4b44a2 *gd1981-10-02d1t08.flac
0041517ee224c1b8f009e3f77e5ae739 *gd1981-10-02d1t09.flac
991d47b1bf92ff5706b29b03aee06d53 *gd1981-10-02d1t10.flac
71c5eeb479bf8fe9160a1e25d8674384 *gd1981-10-02d1t11.flac
975396f0a084966258674dc35ad95c0b *gd1981-10-02d2t01.flac
6448072e5dfdc0064c42f04ec533d530 *gd1981-10-02d2t02.flac
7cdb2982959f4920d395f2e92129423b *gd1981-10-02d2t03.flac
43ed9f510af9b7e09c9f113b6c4eaae0 *gd1981-10-02d2t04.flac
afdd17a6a6fb619710219b648a457876 *gd1981-10-02d2t05.flac
89f92bd860ea0cc9d6e0ce4dc379c011 *gd1981-10-02d2t06.flac
a8922eb23c50166f805fc6711a5cd9b9 *gd1981-10-02d2t07.flac
0726f5702bb813e827a0fbce9c1cf598 *gd1981-10-02d3t01.flac
422d752fbe5ae5467f86e618465d9949 *gd1981-10-02d3t02.flac
884209baeb34536614b6172e5fd074ed *gd1981-10-02d3t03.flac
344f5c0ee4c0e67025908bd83d4d0b5b *gd1981-10-02d3t04.flac
ffp
gd1981-10-02d1t01.flac:8b645a70c5d4826c628e2a0c436728e1
gd1981-10-02d1t02.flac:86d5e764c381aceb1fde1da9d0a38af2
gd1981-10-02d1t03.flac:ad9611ff6b5ca1943f0e4896aee957c0
gd1981-10-02d1t04.flac:9209d8370623e4954f8fc2299ee6a97e
gd1981-10-02d1t05.flac:de232d7d79a0768056606f7f128e42a3
gd1981-10-02d1t06.flac:4e500641567452e630ace7542c2607ad
gd1981-10-02d1t07.flac:757e2fca48eeec8b0b6af0545bad3bbd
gd1981-10-02d1t08.flac:1d4c7b29a4b9b9b356d46c9e28eb84af
gd1981-10-02d1t09.flac:ce8f628cec0f8143049d3d108c887a0d
gd1981-10-02d1t10.flac:32d1bded577baec5951e09e1417bb64c
gd1981-10-02d1t11.flac:9f5c1960928b31dbecefa0f1dd0ad6cf
gd1981-10-02d2t01.flac:a25a80ca4f0f994a4280f2480f4de5c4
gd1981-10-02d2t02.flac:db7af2570b6974123e707e1b4a14beaa
gd1981-10-02d2t03.flac:92997186afeb3ca37090422bf7d82ee5
gd1981-10-02d2t04.flac:8e0efd67c833db4739ef59772fc76919
gd1981-10-02d2t05.flac:867f4f193747654d87a114f3ef2a11f0
gd1981-10-02d2t06.flac:5fcb02049f5df383349f05ac61a62806
gd1981-10-02d2t07.flac:463ec980664636f8ff22e7bc61c8fd8e
gd1981-10-02d3t01.flac:bb9f2bab50ca8a2528b3417ca51b4f22
gd1981-10-02d3t02.flac:7fa02f7cc4b70593ae76fd6bf775838f
gd1981-10-02d3t03.flac:7c2529fb58d878d181341504b9126d05
gd1981-10-02d3t04.flac:d53f6642231d0148e72beed26dfca92c

Comments
Add Comment
Other Sources (comments)
sbd> reel> ?> dats> wave>... (1) flac16; source: aud... (0) flac16; Set 2, Beyer... (0) flac16; Source:... (0) flac16/96kHz;... (0) flac24/176.4kHz;... (0)
Date User Comment