Browse Collections Artists Sources   Search Dates

Add Show    List Management    Help


Grateful Dead 03/07/81
Cole Field House - University of Maryland, College Park, MD
Comments Add Comment    Source Collectors    Add to Collection    Add to Want List    History
Source # 128812 Other Sources
Entered by Gary Field
Checksums orig-ffp , orig-md5 , ffp , flac-md5
Disc Counts 0 / 0
Media Size Compressed: 3.44 GB (3690286969 bytes)
Uncompressed: 53.81 GB (57778714326 bytes)
Date Circulated
Date Added
05/25/2014
05/25/2014
Source Summary flac24; Recording by Jim Wise: Master Audience Cassette; 2 Sennheiser 421s> Sony D-5; Transfer and FLAC encoding by David Minches: May 2014; Dolby B decoded Master played back on Nakamichi Dragon > Korg MR-1000 (DSF [1-bit 5.6448 MHz Stereo]) Korg AudioGate > WAV [24/96] > Adobe Audition 3.0> FLAC encoding 24/96 source 
  Archive
Source Information - Download Text | Download Zip
Grateful Dead
March 7, 1981
Cole Field House - University of Maryland
College Park, MD

Recording by Jim Wise:
Master Audience Cassette; 2 Sennheiser 421s> Sony D-5

Transfer and FLAC encoding by David Minches: May 2014
Dolby B decoded Master played back on Nakamichi Dragon > Korg MR-1000
(DSF [1-bit 5.6448 MHz Stereo]) Korg AudioGate > WAV [24/96] > Adobe Audition 3.0> FLAC encoding
24/96 source
________________________________________________________________________________________________

--Set 1--
s1t01  crowd/tuning
s1t02  Alabama Getaway >
s1t03  Greatest Story Ever Told
s1t04  Dire Wolf
s1t05  Me And My Uncle >
s1t06  Big River
s1t07  Candyman
s1t08  C.C. Rider
s1t09  Jack-A-Roe
s1t10  Passenger
s1t11  Bird Song >
s1t12  Looks Like Rain >
s1t13  Deal

--Set 2--
s2t01  crowd
s2t02  Aiko Aiko >
s2t03  Lost Sailor >
s2t04  Saint of Circumstance >
s2t05  Jam >
s2t06  Drums >
s2t07  Space >
s2t08  Truckin'>
s2t09  Black Peter>
s2t10  Around & Around >
s2t11  Johnny B. Goode

--Encore--
s2t12  One More Saturday Night
________________________________________________________________________________________________

Tagging notes:
Show information is embedded within the headerof each flac file.
It will display on any player capable of directly playing flac files.
If converted to wav during processing, all tags will be stripped,
however audio data will remain unaffected.
If you must transcode to a lossy format, do so directly Flac > Lossy.
Use ffp to validate audio integrity.
Md5 values will change if tagging is altered.
B. Proctor 5/25/2014
________________________________________________________________________________________________

    length     expanded size    cdr  WAVE problems  fmt   ratio  filename
     1:51.902      64455320 B   cxx   --   ---xx   flac  0.6194  s01t01 - Tuning.flac
     5:39.255     195410732 B   cxx   --   ---xx   flac  0.6477  s01t02 - Alabama Getaway.flac
     5:33.825     192283460 B   cxx   --   ---xx   flac  0.6341  s01t03 - Greatest Story Ever Told.flac
     3:51.226     133186244 B   cxx   --   ---xx   flac  0.6386  s01t04 - Dire Wolf.flac
     2:52.581      99406592 B   cxx   --   ---xx   flac  0.6463  s01t05 - Me and My Uncle.flac
     6:27.545     223225682 B   cxx   --   ---xx   flac  0.6419  s01t06 - Big River.flac
     7:06.767     245817962 B   cxx   --   ---xx   flac  0.6301  s01t07 - Candyman.flac
     8:34.777     296511314 B   cxx   --   ---xx   flac  0.6361  s01t08 - C.C. Rider.flac
     6:48.283     235170800 B   cxx   --   ---xx   flac  0.6444  s01t09 - Jack-A-Roe.flac
     5:15.017     181450088 B   cxx   --   ---xx   flac  0.6575  s01t10 - Passenger.flac
    17:00.573     587850320 B   cxx   --   ---xx   flac  0.6430  s01t11 - Birdsong.flac
     7:45.654     268216538 B   cxx   --   ---xx   flac  0.6414  s01t12 - Looks Like Rain.flac
     9:49.000     339263984 B   cxx   --   ---xx   flac  0.6553  s01t13 - Deal.flac
     0:21.769      12539054 B   cxx   --   ---xx   flac  0.6109  s02t01 - Tuning.flac
     7:22.325     254779226 B   cxx   --   ---xx   flac  0.6468  s02t02 - Aiko Aiko.flac
     6:04.917     210192152 B   cxx   --   ---xx   flac  0.6312  s02t03 - Lost Sailor.flac
     8:52.602     306778838 B   cxx   --   ---xx   flac  0.6463  s02t04 - St. of Circumstance.flac
     9:43.439     336060680 B   cxx   --   ---xx   flac  0.6323  s02t05 - Jam.flac
     6:20.938     219420434 B   cxx   --   ---xx   flac  0.6173  s02t06 - Drums.flac
     6:48.696     235408724 B   cxx   --   ---xx   flac  0.6076  s02t07 - Space.flac
    10:43.443     370623122 B   cxx   --   ---xx   flac  0.6394  s02t08 - Truckin'.flac
     9:09.209     316344554 B   cxx   --   ---xx   flac  0.6213  s02t09 - Black Peter.flac
     3:49.044     131929346 B   cxx   --   ---xx   flac  0.6412  s02t10 - Around and Around.flac
     4:46.157     164826458 B   cxx   --   ---xx   flac  0.6521  s02t11 - Johnny B. Goode.flac
     4:33.546     157562702 B   cxx   --   ---xx   flac  0.6495  s02t12 - One More Saturday Night.flac
   167:12.488    5778714326 B                            0.6386  (25 files)






Show Checksums
orig-ffp
s01t01 - Tuning.flac:00ff9068d456e779757903e06c5f7466
s01t02 - Alabama Getaway.flac:c1aed8c61b09666d63aea0f370d9c171
s01t03 - Greatest Story Ever Told.flac:94593cb337cbf7f0a243601dfa0bad7f
s01t04 - Dire Wolf.flac:e674689acc99a814c4fafc20e7a04029
s01t05 - Me and My Uncle.flac:ec07339862b81cbe9355de995b139227
s01t06 - Big River.flac:4a7d2eb06469f7ee9189e53b1ba463b6
s01t07 - Candyman.flac:34f17fe42843ee489bb2a694499a9c54
s01t08 - C.C. Rider.flac:00d84b0f1d34313bc8a8cab921eae7b3
s01t09 - Jack-A-Roe.flac:ade08009a77d767bff9069e06c934372
s01t10 - Passenger.flac:7006224e0bb49214c209fc65e76c9c73
s01t11 - Birdsong.flac:88ab66bb0806d8b02fedf8fb08ee1cf4
s01t12 - Looks Like Rain.flac:986a8907469eb794849e438874fc14ad
s01t13 - Deal.flac:1fa8141f3df7f1abd73dff2670f134a4
s02t01 - Tuning.flac:03e72ef258ebd65d494e2d6c1eec3291
s02t02 - Aiko Aiko.flac:d8cf979d79495aec9a386844d4299672
s02t03 - Lost Sailor.flac:163ee13107fd998f6cbd87fcb151760e
s02t04 - St. of Circumstance.flac:391ab9550f1a3959f131664772881697
s02t05 - Jam.flac:e2f43c65c72198f05d84491bbf501325
s02t06 - Drums.flac:9fa8a2678153c1c89cffd74afdd1677c
s02t07 - Space.flac:4e6fb20f2ea3aa1d58044b325f334a4e
s02t08 - Truckin'.flac:83b666861eb106f6f0846729d5af4e75
s02t09 - Black Peter.flac:0926c71867319b004bb84ea429c8242c
s02t10 - Around and Around.flac:432ff3892787de26dd5ab35b34d2c18c
s02t11 - Johnny B. Goode.flac:04e2c9581017a3e31d518844b26b8b2e
s02t12 - One More Saturday Night.flac:cd83130b3c9cde34de2c489124dc2a78
orig-md5
7f4ec2bcda62efe2027bd6884adeb81d *s01t01 - Tuning.flac
ce4aa7399fe1bd1e7bdac4fb49218b9d *s01t02 - Alabama Getaway.flac
c16acd66c2e7375e25e767f1e911cf39 *s01t03 - Greatest Story Ever Told.flac
34eed828e7c88cbe66e33675e55f0480 *s01t04 - Dire Wolf.flac
d4d60c03b60698b5fb7cb950a3a96d71 *s01t05 - Me and My Uncle.flac
8085a866a46308893f24a978a61558d0 *s01t06 - Big River.flac
ec31012845bc9afbe09ab538af8f6ca8 *s01t07 - Candyman.flac
43f358bf739920d2e9ec0d4e4d0e8148 *s01t08 - C.C. Rider.flac
7a4f3f2b47b7d925999ddc6f5c2124a2 *s01t09 - Jack-A-Roe.flac
f57285e2daf4d8059c67467b9ad8c8c6 *s01t10 - Passenger.flac
b55dde36c872b9b602cb45c5ae79c32c *s01t11 - Birdsong.flac
b6a29ef1abf635350d7a33e463f5615d *s01t12 - Looks Like Rain.flac
836a198c2e862c9f4dbbf763794e8e10 *s01t13 - Deal.flac
7b2a68305f1049324be5d942e1f712c7 *s02t01 - Tuning.flac
779d440a71c6248de7c4dbb5e05ff1a9 *s02t02 - Aiko Aiko.flac
44049a1ad344277785a902de9ee0a070 *s02t03 - Lost Sailor.flac
f3a5ec352df9acf2218fbba5c24df01f *s02t04 - St. of Circumstance.flac
0a9488651828c16ac72a92242f034ef7 *s02t05 - Jam.flac
05b043ae62a5a0b09de409e41047b091 *s02t06 - Drums.flac
1694bfede480e19cbb07c9e985ad377d *s02t07 - Space.flac
86da2b4977f4b22924dbc42b12d695fa *s02t08 - Truckin'.flac
413ebc340a9bf10e3a59c0be6db039d4 *s02t09 - Black Peter.flac
faf3479b70f6a237ff817a5355e7fe6f *s02t10 - Around and Around.flac
4a5faeeb11810c38d44cd919a58b3bf2 *s02t11 - Johnny B. Goode.flac
b241ddfd17b04e43fcda9e735d0b8670 *s02t12 - One More Saturday Night.flac
ffp
s01t01.flac:00ff9068d456e779757903e06c5f7466
s01t02.flac:c1aed8c61b09666d63aea0f370d9c171
s01t03.flac:94593cb337cbf7f0a243601dfa0bad7f
s01t04.flac:e674689acc99a814c4fafc20e7a04029
s01t05.flac:ec07339862b81cbe9355de995b139227
s01t06.flac:4a7d2eb06469f7ee9189e53b1ba463b6
s01t07.flac:34f17fe42843ee489bb2a694499a9c54
s01t08.flac:00d84b0f1d34313bc8a8cab921eae7b3
s01t09.flac:ade08009a77d767bff9069e06c934372
s01t10.flac:7006224e0bb49214c209fc65e76c9c73
s01t11.flac:88ab66bb0806d8b02fedf8fb08ee1cf4
s01t12.flac:986a8907469eb794849e438874fc14ad
s01t13.flac:1fa8141f3df7f1abd73dff2670f134a4
s02t01.flac:03e72ef258ebd65d494e2d6c1eec3291
s02t02.flac:d8cf979d79495aec9a386844d4299672
s02t03.flac:163ee13107fd998f6cbd87fcb151760e
s02t04.flac:391ab9550f1a3959f131664772881697
s02t05.flac:e2f43c65c72198f05d84491bbf501325
s02t06.flac:9fa8a2678153c1c89cffd74afdd1677c
s02t07.flac:4e6fb20f2ea3aa1d58044b325f334a4e
s02t08.flac:83b666861eb106f6f0846729d5af4e75
s02t09.flac:0926c71867319b004bb84ea429c8242c
s02t10.flac:432ff3892787de26dd5ab35b34d2c18c
s02t11.flac:04e2c9581017a3e31d518844b26b8b2e
s02t12.flac:cd83130b3c9cde34de2c489124dc2a78
flac-md5
7f4ec2bcda62efe2027bd6884adeb81d *s01t01.flac
ce4aa7399fe1bd1e7bdac4fb49218b9d *s01t02.flac
c16acd66c2e7375e25e767f1e911cf39 *s01t03.flac
34eed828e7c88cbe66e33675e55f0480 *s01t04.flac
d4d60c03b60698b5fb7cb950a3a96d71 *s01t05.flac
8085a866a46308893f24a978a61558d0 *s01t06.flac
ec31012845bc9afbe09ab538af8f6ca8 *s01t07.flac
43f358bf739920d2e9ec0d4e4d0e8148 *s01t08.flac
7a4f3f2b47b7d925999ddc6f5c2124a2 *s01t09.flac
f57285e2daf4d8059c67467b9ad8c8c6 *s01t10.flac
b55dde36c872b9b602cb45c5ae79c32c *s01t11.flac
b6a29ef1abf635350d7a33e463f5615d *s01t12.flac
836a198c2e862c9f4dbbf763794e8e10 *s01t13.flac
7b2a68305f1049324be5d942e1f712c7 *s02t01.flac
779d440a71c6248de7c4dbb5e05ff1a9 *s02t02.flac
44049a1ad344277785a902de9ee0a070 *s02t03.flac
f3a5ec352df9acf2218fbba5c24df01f *s02t04.flac
0a9488651828c16ac72a92242f034ef7 *s02t05.flac
05b043ae62a5a0b09de409e41047b091 *s02t06.flac
1694bfede480e19cbb07c9e985ad377d *s02t07.flac
86da2b4977f4b22924dbc42b12d695fa *s02t08.flac
413ebc340a9bf10e3a59c0be6db039d4 *s02t09.flac
faf3479b70f6a237ff817a5355e7fe6f *s02t10.flac
4a5faeeb11810c38d44cd919a58b3bf2 *s02t11.flac
b241ddfd17b04e43fcda9e735d0b8670 *s02t12.flac

Comments
Add Comment
Other Sources (comments)
FOB> Nak 700 mics> Sony... (3) Recording by Jim Wise: Senn... (0) flac16; Recording by... (0) flac24/96; Recording... (0) flac16; Recording by... (0)
Date User Comment