Browse Collections Artists Sources   Search Dates

Add Show    List Management    Help


Grateful Dead 11/04/79
Providence Civic Center, Providence, RI
Comments Add Comment    Source Collectors    Add to Collection    Add to Want List    History
Source # 128814 Other Sources
Entered by Matt Vernon
Checksums ffp , flac-md5
Disc Counts 2 / 3
Media Size Compressed: 803.12 MB (842127622 bytes)
Date Circulated
Date Added
05/26.2014
05/26/2014
Source Summary flac16; Recording Info: SBD > MC > C > DAT > CDR. Transfer Info: CDR > wav > Sound Forge 10 >TLH > flac 
  Archive
Source Information - Download Text | Download Zip
THE GRATEFUL DEAD
Civic Center
Providence, RI
November 4, 1979

Recording Info;
SBD > MC > C > DAT > CDR.
Transfer Info;
CDR > wav > Sound Forge 10 >TLH > flac

FIXES AND NOTES:
Retracked, patched version of shnid 6947
Patches taken from nice aud, shnid 101485

Disc 1, track 1, patched at 0:00 - 0:02
Disc 1, track 6, patched at 0:00 - 0:48
Disc 2, track 1, patched at 0:00 - 0:05
Disc 2, track 6, patched at 6:55 - 7:34
Disc 3, track 6, patched at 0:55 to end
Disc 3, track 7, aud for entire track
Pitch was corrected. Play along to this wonderful performance.

Retracked, patched and remastered by Bill Guarneri, May 26, 2014

Set 1, Disc 1
01. New Minglewood Blues
02. They Love Each Other
03. Me And My Uncle >
04. Big River
05. Althea
06. Easy To Love You
07. Brown Eyed Women
08. Lost Sailor >
09. Saint Of Circumstance
10. Deal

Set 2, Disc 2
01. Alabama Getaway
02. Greatest Story Ever Told
03. Tuning
04. Ship Of Fools
05. Estimated Prophet
06. He's Gone

Set 2, Disc 3
01. Jam >
02. Space >
03. Drums >
04. Space >
05. The Other One >
06. Wharf Rat >
07. Around And Around
Encore
08. U. S. Blues

length     expanded size    cdr  WAVE problems  fmt   ratio  filename
     6:43.24       71145692 B   ---   --   ---xx   flac  0.5577  gd1979-11-04d1t01.flac
     7:50.57       83042108 B   ---   --   ---xx   flac  0.5271  gd1979-11-04d1t02.flac
     2:59.38       31665020 B   ---   --   ---xx   flac  0.5677  gd1979-11-04d1t03.flac
     5:54.07       62462108 B   ---   --   ---xx   flac  0.5568  gd1979-11-04d1t04.flac
     8:27.03       89441900 B   ---   --   ---xx   flac  0.5286  gd1979-11-04d1t05.flac
     3:50.00       40572044 B   ---   --   ---xx   flac  0.5604  gd1979-11-04d1t06.flac
     6:17.31       66575756 B   ---   --   ---xx   flac  0.5416  gd1979-11-04d1t07.flac
     6:10.55       65397404 B   ---   --   ---xx   flac  0.5508  gd1979-11-04d1t08.flac
     5:20.64       56598572 B   ---   --   ---xx   flac  0.5921  gd1979-11-04d1t09.flac
     5:31.22       58440188 B   ---   --   ---xx   flac  0.5704  gd1979-11-04d1t10.flac
     5:18.43       56196380 B   ---   --   ---xx   flac  0.5775  gd1979-11-04d2t01.flac
     4:19.46       45795836 B   ---   --   ---xx   flac  0.5853  gd1979-11-04d2t02.flac
     1:04.12       11317868 B   ---   --   ---xx   flac  0.4280  gd1979-11-04d2t03.flac
     7:52.03       83267900 B   ---   --   ---xx   flac  0.4979  gd1979-11-04d2t04.flac
    13:28.09      142552412 B   ---   --   ---xx   flac  0.5357  gd1979-11-04d2t05.flac
    13:27.09      142376012 B   ---   --   ---xx   flac  0.4902  gd1979-11-04d2t06.flac
     3:01.26       31989596 B   ---   --   ---xx   flac  0.5152  gd1979-11-04d3t01.flac
     4:16.05       45170204 B   ---   --   ---xx   flac  0.4980  gd1979-11-04d3t02.flac
     2:03.33       21774860 B   ---   --   ---xx   flac  0.5199  gd1979-11-04d3t03.flac
     6:13.18       65839580 B   ---   --   ---xx   flac  0.4681  gd1979-11-04d3t04.flac
     4:40.70       49556684 B   ---   --   ---xx   flac  0.5452  gd1979-11-04d3t05.flac
    10:09.21      107477036 B   ---   --   ---xx   flac  0.5219  gd1979-11-04d3t06.flac
     7:55.58       83926460 B   ---   --   ---xx   flac  0.5475  gd1979-11-04d3t07.flac
     6:02.01       63859196 B   ---   --   ---xx   flac  0.5497  gd1979-11-04d3t08.flac
   148:56.55     1576440816 B                            0.5342  (24 files)



Show Checksums
ffp
gd1979-11-04d1t01.flac:8ff51e02bd3e47a8fabb61c07da03934
gd1979-11-04d1t02.flac:18049f103259d65ed7085d4eec79d8d3
gd1979-11-04d1t03.flac:34c4cd60f7f40fa4df97b6cda04f7955
gd1979-11-04d1t04.flac:daacb7aa577f7643415238a9c540998d
gd1979-11-04d1t05.flac:c54720a47761c6a3eb6731e310fb7a49
gd1979-11-04d1t06.flac:4a8787f5b99a0eec139ff2c7e5252528
gd1979-11-04d1t07.flac:22099cd35523072ed41b17e2349f4c96
gd1979-11-04d1t08.flac:626761420168c46525892040d2ca43fb
gd1979-11-04d1t09.flac:7a790150a5917de56774810f8e0a73dc
gd1979-11-04d1t10.flac:ab62c5a4e85a374bc23e8911e8d9b779
gd1979-11-04d2t01.flac:651eb435746d7ef449b00570562a5d34
gd1979-11-04d2t02.flac:96055508efd3f3f58402bff1bd91b613
gd1979-11-04d2t03.flac:27f313c41087565c0d2a894ae6756689
gd1979-11-04d2t04.flac:5e5c2cf2d092be3b3d2952b050fd894e
gd1979-11-04d2t05.flac:27cf03fa7f0002a1215d15fb020118a6
gd1979-11-04d2t06.flac:19e1e9dde63f792c96f036993c05c945
gd1979-11-04d3t01.flac:8d315adc7f16dd609fbee6443cf38795
gd1979-11-04d3t02.flac:5971d3df615b05195bd579f838a97705
gd1979-11-04d3t03.flac:8bd72730d0d09d2066aa62fffe45ad6f
gd1979-11-04d3t04.flac:0d3155e3faa63728a9f8d320c15e9e3d
gd1979-11-04d3t05.flac:491d20a550d4a87a846a76479ae7a538
gd1979-11-04d3t06.flac:453eafc83eaebb5f8d0d8ae24e93056f
gd1979-11-04d3t07.flac:75ff7e8d23de3beb28940bb73675baf1
gd1979-11-04d3t08.flac:c7eb3a026cfa60c95404892c11184027
flac-md5
e0d70eeb33a39303b0bbf4a4c5d7c179 *gd1979-11-04d1t01.flac
289538ba37fe5b1117239cc47eed6424 *gd1979-11-04d1t02.flac
7fc277034a79bfefef531cddded00ebf *gd1979-11-04d1t03.flac
296fba6b9dbd3139ad6b23ad6107a8de *gd1979-11-04d1t04.flac
7ed1b80d13f5500627e2b35962888166 *gd1979-11-04d1t05.flac
4bd8aea1d953c2574a820861a3415c86 *gd1979-11-04d1t06.flac
4d3f86c6992cf1c4e136331720f6200d *gd1979-11-04d1t07.flac
075d06472549b23da74ce4bf3f7d23d3 *gd1979-11-04d1t08.flac
d7dd0b0c5879d1d32bdb228178563b03 *gd1979-11-04d1t09.flac
193c4b0f626f5cda0119aeeef4916d2c *gd1979-11-04d1t10.flac
7983cd87d9d246a8a1dc4cfd8d3b8c57 *gd1979-11-04d2t01.flac
56abcc9a99ce414b815b2ff9e12cc4cc *gd1979-11-04d2t02.flac
3b14565b205432f0fda3a016aebbc50e *gd1979-11-04d2t03.flac
857553a21d474de0d7bf58fcef9414dd *gd1979-11-04d2t04.flac
94a71b65e01189da67565fa95445ebe0 *gd1979-11-04d2t05.flac
0672da812044c02b6b15ea58aa2c6e7c *gd1979-11-04d2t06.flac
6b1b3fe89ce3f5460a6f4af5baa6ef52 *gd1979-11-04d3t01.flac
ce716d17255b9da98a998f4f34d1fe91 *gd1979-11-04d3t02.flac
2ea48d1e0dbe4cbfc5ce3981d8883754 *gd1979-11-04d3t03.flac
c6265eec9dc61863ba44ccbffc352a7f *gd1979-11-04d3t04.flac
cea8eca9e50aa747786aa89d75be6bcb *gd1979-11-04d3t05.flac
421aafab894834d47e6ede67de3cc8c7 *gd1979-11-04d3t06.flac
ef68e54b2a3455b02c176108f31c645c *gd1979-11-04d3t07.flac
236ca995812ed9b7563bdf31a2be017f *gd1979-11-04d3t08.flac

Comments
Add Comment
Other Sources (comments)
Master Soundboard Cassette... (1) SB>MR>Dick Latvala's... (2) flac16; Unknown... (0) flac24; AUD: AKG... (2) flac16; AUD: AKG... (2) flac16/48kHz;... (0)
Date User Comment
07/25/2018 [email protected] This is very fast and has aggressive digital noise reduction applied to it.