Browse Collections Artists Sources   Search Dates

Add Show    List Management    Help


Grateful Dead 08/31/79
Glens Falls Civic Center, Glens Falls, NY
Comments Add Comment    Source Collectors    Add to Collection    Add to Want List    History
Source # 129030 Other Sources
Entered by Matt Vernon
Checksums flac-md5 , ffp
Disc Counts 0 / 0
Media Size Compressed: 478.35 MB (501587968 bytes)
Uncompressed: 784.91 MB (823040592 bytes)
Date Circulated
Date Added
05/31/2014
05/31/2014
Source Summary flac16; AUD: Set One, AKG D222E's > Nakamichi 550; Set Two, Nak 300's > Nakamichi 550. Transfer: MAC > Nakamichi 1000-II > Sound Devices USB Pre-2 > WAV 2496. Edits: WAV 2496 > Wavelab > R8Brain > CD-Wave > TLH > FLAC 1644 tagged. Concert recording & transfer by Richie Stankiewicz, edits by Andrew F. 05/2014. 
  Archive
Source Information - Download Text | Download Zip
GRATEFUL DEAD
Civic Center
Glens Falls NY
08-31-1979
Partial Aud

s1t01 Promised Land
s1t02 Dire Wolf
s1t03 Cassidy
s1t04 Loser
s1t05 El Paso
s1t06 Peggy-O
s1t07 Easy to Love You
s1t08 Minglewood Blues
s1t09 Althea

s2t01 Shakedown Street
s2t02 Greatest Story Ever Told
s2t03 Ship of Fools

AUD: Set One, AKG D222E's > Nakamichi 550; Set Two, Nak 300's > Nakamichi 550.

Transfer: MAC > Nakamichi 1000-II > Sound Devices USB Pre-2 > WAV 2496.

Edits: WAV 2496 > Wavelab > R8Brain > CD-Wave > TLH > FLAC 1644 tagged.

Concert recording & transfer by Richie Stankiewicz, edits by Andrew F. 05/2014.

Notes: Mix improves during Set One. Richie was busted after Althea, then patched
into Tom Fagen for Set Two, however, the MAC Tape #2 is now lost... ID-9973 patches:
Promised Land 0:00 > 0:25, Dire Wolf 0:00 > 0:29, and Greatest Story 0:00 > 0:10.

    length     expanded size    cdr  WAVE problems  fmt   ratio  filename
     4:48.36       50887916 B   ---   --   ---xx   flac  0.6399  gd1979-08-31s1t01.flac
     3:46.64       40016972 B   ---   --   ---xx   flac  0.6202  gd1979-08-31s1t02.flac
     5:12.31       55109756 B   ---   --   ---xx   flac  0.6032  gd1979-08-31s1t03.flac
     7:19.32       77514908 B   ---   --   ---xx   flac  0.5802  gd1979-08-31s1t04.flac
     4:34.71       48500636 B   ---   --   ---xx   flac  0.6004  gd1979-08-31s1t05.flac
     6:51.68       72660380 B   ---   --   ---xx   flac  0.6104  gd1979-08-31s1t06.flac
     3:38.71       38622236 B   ---   --   ---xx   flac  0.6144  gd1979-08-31s1t07.flac
     6:29.44       68723132 B   ---   --   ---xx   flac  0.6171  gd1979-08-31s1t08.flac
     8:13.38       87054620 B   ---   --   ---xx   flac  0.6299  gd1979-08-31s1t09.flac
    13:58.57      147957308 B   ---   --   ---xx   flac  0.6179  gd1979-08-31s2t01.flac
     5:11.44       54963932 B   ---   --   ---xx   flac  0.6151  gd1979-08-31s2t02.flac
     7:39.26       81028796 B   ---   --   ---xx   flac  0.5711  gd1979-08-31s2t03.flac
    77:45.57      823040592 B                            0.6094  (12 files)

No errors occured.


Show Checksums
flac-md5
a6cb95ee4b03eb4d68af5b754590cb8f *gd1979-08-31s1t01.flac
a4bd5503a29e33414fc7317c7e35acb7 *gd1979-08-31s1t02.flac
cbbae845ef732e5fa72db75f7173101a *gd1979-08-31s1t03.flac
f343e174100d8f1bd23d5d37a51c088b *gd1979-08-31s1t04.flac
d947e39acc18ea355c43c727d47726c8 *gd1979-08-31s1t05.flac
183976445830324dbf4a4b6dc99724ff *gd1979-08-31s1t06.flac
a241bc1a075a0e9e72ee74ac9015be09 *gd1979-08-31s1t07.flac
c0e4b05f971a3bededa7cb2b19778427 *gd1979-08-31s1t08.flac
eec7c33dbc41712c7d50f90c307e04b3 *gd1979-08-31s1t09.flac
00690f8e8babadc3132d64f30f714be7 *gd1979-08-31s2t01.flac
d00e03147f4d8638ab6417dd76e99c4b *gd1979-08-31s2t02.flac
8168c186e93918dad20d048fc8369b10 *gd1979-08-31s2t03.flac
ffp
gd1979-08-31s1t01.flac:7b53b4ea763a3d4df5372e02e537405d
gd1979-08-31s1t02.flac:93ec0a5e7bec0e131d9e687996525e3a
gd1979-08-31s1t03.flac:5c761467d577169075260c9ca4033c55
gd1979-08-31s1t04.flac:f6bcfaf94d686ab2cd03638480f231ab
gd1979-08-31s1t05.flac:2e43862c413760245812d40aaf8a9804
gd1979-08-31s1t06.flac:c35def54e19e120c6208f3cfcceac3cb
gd1979-08-31s1t07.flac:578c3fbe22a7ec1b4b14f03e13f314f8
gd1979-08-31s1t08.flac:bd3dcff6cd228ff63935f124e88f4761
gd1979-08-31s1t09.flac:b62f756b1a66317663225925f0886b8d
gd1979-08-31s2t01.flac:60db98b2950ebac2b0f8bc4393b73619
gd1979-08-31s2t02.flac:10ea994488b770c7030abf0ad38f2585
gd1979-08-31s2t03.flac:1ed6893d87e6badf2f359d5eca4a694d

Comments
Add Comment
Other Sources (comments)
AUD(Nak 300's)>MC>DAT>CDR;... (0) flac16; Recording... (0) flac16; 2 source... (0)
Date User Comment