Browse Collections Artists Sources   Search Dates

Add Show    List Management    Help


Drive-By Truckers 01/15/10
40 Watt Club, Athens, GA
Comments Add Comment    Source Collectors    Add to Collection    Add to Want List    History
Source # 129263 Other Sources
Entered by ziko
Checksums ffp
Disc Counts 0 / 0
Media Size
Date Circulated
Date Added
01/17/2010
06/01/2014
Source Summary Source: AKG c426b (cardioid xy, fob, ~dfc 8') > V3 (24/96) > SD722 Transfer: firewire>Wavelab 5.0 w/ozone izotope 4(fades, resample & dither)>cdwav (splits)>flacfrontend 
  Archive
Source Information - Download Text | Download Zip
Drive By Truckers
2010-01-15
40 Watt Club, Athens, Ga.

Source: AKG c426b (cardioid xy, fob, ~dfc 8') > V3 (24/96) > SD722
Transfer: firewire>Wavelab 5.0 w/ozone izotope 4(fades, resample & dither)>cdwav (splits)>flacfrontend
taped and transferred by John Barren

01. After the Scene Dies
02. Fourth Night of My Drinking
03. Birthday Boy
04. Girls That Smoke
05. Home Field Advantage
06. Lookout Mountain
07. Three Dimes Down
08. The Company I Keep
09. Where the Devil Don't Stay
10. Play It All Night Long
11. banter
12. Where's Eddie*
13. Everybody Needs Love*
14. banter
15. Santa Fe
16. Women Without Whiskey
17. Feb 14
18. Get Downtown
19. (It's Gonna Be) I Told You So
20. The Flying Wallendas
encore
21. crowd
22. You Got Another
23. Dancing Ricky
24. A World of Hurt
25. Zip City
26. Puttin' People on the Moon
encore 2
27. crowd
28. Rockin' in the Free World^
29. People Who Died#

* w/David Hood  bass
^ w/David Barbe guitar
# w/David Barbe  guitar, Damon Scott guitar


flac fingerprint
dbt2010-01-15s1t01.flac:62bd6f1e82194a6efd97b956636aee79
dbt2010-01-15s1t02.flac:8c3e1fe7ee29ded2b668749b19772fb3
dbt2010-01-15s1t03.flac:070e7665bea6f22e2f3cff3f63f151fd
dbt2010-01-15s1t04.flac:bc6e815076e0accff61f23b7ab2333ef
dbt2010-01-15s1t05.flac:2cdfb68b3f0f375b0f6aede3dca489f4
dbt2010-01-15s1t06.flac:903a6841d7c8ca5772845304d9f286ad
dbt2010-01-15s1t07.flac:ce99f5e64a20de907d4648217aced844
dbt2010-01-15s1t08.flac:185ef43fd0cf159a1aaea4bdbcd7643c
dbt2010-01-15s1t09.flac:c3f5dd1577a9b4f85a2e3108ab27f9fb
dbt2010-01-15s1t10.flac:6e34eed1bf2e39bfc5708ae9c0a6d777
dbt2010-01-15s1t11.flac:1c57d00a3d5814c21343a0241eb21013
dbt2010-01-15s1t12.flac:7e4f9fc912dd67d470e0f7cfaf7d047e
dbt2010-01-15s1t13.flac:b34c4a633646d2d8d7cfb8685f7a1ccc
dbt2010-01-15s1t14.flac:1a6edf273f73b47387a800d4a46a36c6
dbt2010-01-15s1t15.flac:3f05d6537affdfd4e5b31e287df8f2c8
dbt2010-01-15s1t16.flac:88f88f28be0d4af5eaae81134c07c3bd
dbt2010-01-15s1t17.flac:905ffa30129fd9706d7d2ec3cba5a17f
dbt2010-01-15s1t18.flac:08f0344e969c57f3f22822871e703b1e
dbt2010-01-15s1t19.flac:4962c25412ee2b908ada8e51b9f49a81
dbt2010-01-15s1t20.flac:e18acb3b564490ced4b52d7e949c7f9d
dbt2010-01-15s1t21.flac:91215c97d3bab0204f6f16da10992722
dbt2010-01-15s1t22.flac:8f2fa70563d4ff96f9f4c08c074e8c93
dbt2010-01-15s1t23.flac:7b1d9b80b502539994bf6bfc33c40971
dbt2010-01-15s1t24.flac:116f3782d82cea353ebac1db4eecf013
dbt2010-01-15s1t25.flac:babb1f71740e1af3b241e755f995a539
dbt2010-01-15s1t26.flac:cccf1a83efa49aee4f91aa74aae17b68
dbt2010-01-15s1t27.flac:752676264237eaac3202517185a7467e
dbt2010-01-15s1t28.flac:947c1da4b66e36440ccdd88291caa6d0
dbt2010-01-15s1t29.flac:71039c93dfa6b6d221a1866669e01f2d

shntool
    length     expanded size    cdr  WAVE problems  fmt   ratio  filename
     5:22.63       56949020 B   ---   --   ---xx   flac  0.5410  dbt2010-01-15s1t01.flac
     5:02.72       53442188 B   ---   --   ---xx   flac  0.5265  dbt2010-01-15s1t02.flac
     3:39.17       38671628 B   ---   --   ---xx   flac  0.5315  dbt2010-01-15s1t03.flac
     4:20.57       45998108 B   ---   --   ---xx   flac  0.5388  dbt2010-01-15s1t04.flac
     4:32.15       48016124 B   ---   --   ---xx   flac  0.5193  dbt2010-01-15s1t05.flac
     4:35.11       48535916 B   ---   --   ---xx   flac  0.5575  dbt2010-01-15s1t06.flac
     2:54.01       30695996 B   ---   --   ---xx   flac  0.5523  dbt2010-01-15s1t07.flac
     7:32.65       79885724 B   ---   --   ---xx   flac  0.5119  dbt2010-01-15s1t08.flac
     5:10.21       54733436 B   ---   --   ---xx   flac  0.5434  dbt2010-01-15s1t09.flac
     6:20.55       67161404 B   ---   --   ---xx   flac  0.5346  dbt2010-01-15s1t10.flac
     2:58.64       31549772 B   ---   --   ---xx   flac  0.4404  dbt2010-01-15s1t11.flac
     3:28.31       36764156 B   ---   --   ---xx   flac  0.4502  dbt2010-01-15s1t12.flac
     5:48.14       61420172 B   ---   --   ---xx   flac  0.4894  dbt2010-01-15s1t13.flac
     2:03.01       21699596 B   ---   --   ---xx   flac  0.4302  dbt2010-01-15s1t14.flac
     3:37.15       38314124 B   ---   --   ---xx   flac  0.5057  dbt2010-01-15s1t15.flac
     4:30.48       47740940 B   ---   --   ---xx   flac  0.5178  dbt2010-01-15s1t16.flac
     6:01.20       63727484 B   ---   --   ---xx   flac  0.4751  dbt2010-01-15s1t17.flac
     3:42.32       39236108 B   ---   --   ---xx   flac  0.5347  dbt2010-01-15s1t18.flac
     2:09.06       22769756 B   ---   --   ---xx   flac  0.5326  dbt2010-01-15s1t19.flac
     7:01.37       74351468 B   ---   --   ---xx   flac  0.4569  dbt2010-01-15s1t20.flac
     7:24.68       78481580 B   ---   --   ---xx   flac  0.3990  dbt2010-01-15s1t21.flac
     5:31.47       58498988 B   ---   --   ---xx   flac  0.4214  dbt2010-01-15s1t22.flac
     3:26.13       36369020 B   ---   --   ---xx   flac  0.4613  dbt2010-01-15s1t23.flac
     6:17.65       66655724 B   ---   --   ---xx   flac  0.4843  dbt2010-01-15s1t24.flac
     5:28.55       57988604 B   ---   --   ---xx   flac  0.5192  dbt2010-01-15s1t25.flac
     7:28.37       79114268 B   ---   --   ---xx   flac  0.5116  dbt2010-01-15s1t26.flac
     3:16.74       34748492 B   ---   --   ---xx   flac  0.4262  dbt2010-01-15s1t27.flac
     6:12.67       65778428 B   ---   --   ---xx   flac  0.5531  dbt2010-01-15s1t28.flac
     6:44.11       71291516 B   ---   --   ---xx   flac  0.5535  dbt2010-01-15s1t29.flac
   142:43.32     1510589740 B                            0.5013  (29 files)


Show Checksums
ffp
dbt2010-01-15s1t01.flac:62bd6f1e82194a6efd97b956636aee79
dbt2010-01-15s1t02.flac:8c3e1fe7ee29ded2b668749b19772fb3
dbt2010-01-15s1t03.flac:070e7665bea6f22e2f3cff3f63f151fd
dbt2010-01-15s1t04.flac:bc6e815076e0accff61f23b7ab2333ef
dbt2010-01-15s1t05.flac:2cdfb68b3f0f375b0f6aede3dca489f4
dbt2010-01-15s1t06.flac:903a6841d7c8ca5772845304d9f286ad
dbt2010-01-15s1t07.flac:ce99f5e64a20de907d4648217aced844
dbt2010-01-15s1t08.flac:185ef43fd0cf159a1aaea4bdbcd7643c
dbt2010-01-15s1t09.flac:c3f5dd1577a9b4f85a2e3108ab27f9fb
dbt2010-01-15s1t10.flac:6e34eed1bf2e39bfc5708ae9c0a6d777
dbt2010-01-15s1t11.flac:1c57d00a3d5814c21343a0241eb21013
dbt2010-01-15s1t12.flac:7e4f9fc912dd67d470e0f7cfaf7d047e
dbt2010-01-15s1t13.flac:b34c4a633646d2d8d7cfb8685f7a1ccc
dbt2010-01-15s1t14.flac:1a6edf273f73b47387a800d4a46a36c6
dbt2010-01-15s1t15.flac:3f05d6537affdfd4e5b31e287df8f2c8
dbt2010-01-15s1t16.flac:88f88f28be0d4af5eaae81134c07c3bd
dbt2010-01-15s1t17.flac:905ffa30129fd9706d7d2ec3cba5a17f
dbt2010-01-15s1t18.flac:08f0344e969c57f3f22822871e703b1e
dbt2010-01-15s1t19.flac:4962c25412ee2b908ada8e51b9f49a81
dbt2010-01-15s1t20.flac:e18acb3b564490ced4b52d7e949c7f9d
dbt2010-01-15s1t21.flac:91215c97d3bab0204f6f16da10992722
dbt2010-01-15s1t22.flac:8f2fa70563d4ff96f9f4c08c074e8c93
dbt2010-01-15s1t23.flac:7b1d9b80b502539994bf6bfc33c40971
dbt2010-01-15s1t24.flac:116f3782d82cea353ebac1db4eecf013
dbt2010-01-15s1t25.flac:babb1f71740e1af3b241e755f995a539
dbt2010-01-15s1t26.flac:cccf1a83efa49aee4f91aa74aae17b68
dbt2010-01-15s1t27.flac:752676264237eaac3202517185a7467e
dbt2010-01-15s1t28.flac:947c1da4b66e36440ccdd88291caa6d0
dbt2010-01-15s1t29.flac:71039c93dfa6b6d221a1866669e01f2d

Comments
Add Comment
Other Sources (comments)
Source: Neumann ak40 > lc3... (0)
Date User Comment