Browse Collections Artists Sources   Search Dates

Add Show    List Management    Help


Drive-By Truckers 06/05/10
Hunter Mountain Ski Resort, Hunter, NY
Comments Add Comment    Source Collectors    Add to Collection    Add to Want List    History
Source # 129451 Other Sources
Entered by ziko
Checksums ffp
Disc Counts 0 / 0
Media Size
Date Circulated
Date Added
06/07/2010
06/02/2014
Source Summary Source: iClips Webcast Feed > SoundLeech (16bit/44.1kHz) Transfer: WAV > Wavelab 6.1 (Fades) > CDWave > FLAC (8) 
Source Information - Download Text | Download Zip
Drive-By Truckers
2010-06-05
Mountain Jam VI
Hunter, NY.


Source: iClips Webcast Feed > SoundLeech (16bit/44.1kHz)
Transfer: WAV > Wavelab 6.1 (Fades) > CDWave > FLAC (8)
Captured, Transferred & Seeded by Martin Medley


One Set:

01. Fourth Night Of My Drinking
02. Three Dimes Down
03. The Living Bubba
04. Carl Perkins Cadillac
05. Santa Fe
06. Birthday Boy
07. Sinkhole
08. Uncle Frank
09. Respect Yourself *
10. Mercy Buckets
11. Get Downtown
12. (It's Gonna Be) I Told You So
13. Lookout Mountain


* with David Hood on bass

[The complete set was not aired on iClips. Set is missing 'Zip City' & 'Let There Be Rock' after 'Lookout Mountain']


shntool info:

    length     expanded size    cdr  WAVE problems  fmt   ratio  filename
     4:44.11       50123516 B   ---   --   ---xx   flac  0.4710  dbt2010-06-05t01.flac
     3:12.15       33904124 B   ---   --   ---xx   flac  0.4845  dbt2010-06-05t02.flac
     6:14.38       66063020 B   ---   --   ---xx   flac  0.4541  dbt2010-06-05t03.flac
     6:40.21       70609436 B   ---   --   ---xx   flac  0.4454  dbt2010-06-05t04.flac
     3:50.43       40673180 B   ---   --   ---xx   flac  0.4558  dbt2010-06-05t05.flac
     3:51.43       40849580 B   ---   --   ---xx   flac  0.4903  dbt2010-06-05t06.flac
     4:38.25       49098044 B   ---   --   ---xx   flac  0.4810  dbt2010-06-05t07.flac
     6:49.05       72159404 B   ---   --   ---xx   flac  0.4684  dbt2010-06-05t08.flac
     5:41.70       60317084 B   ---   --   ---xx   flac  0.4358  dbt2010-06-05t09.flac
     5:02.44       53376332 B   ---   --   ---xx   flac  0.4592  dbt2010-06-05t10.flac
     3:22.63       35781020 B   ---   --   ---xx   flac  0.4932  dbt2010-06-05t11.flac
     1:55.55       20415404 B   ---   --   ---xx   flac  0.5118  dbt2010-06-05t12.flac
     5:06.73       54150140 B   ---   --   ---xx   flac  0.5109  dbt2010-06-05t13.flac
    61:10.56      647520284 B                            0.4695  (13 files)

Show Checksums
ffp
dbt2010-06-05t01.flac:9746ef451e2feab60bc258f4147a80e6
dbt2010-06-05t02.flac:49d42c68256d9922aedfc5b1da1ce5b2
dbt2010-06-05t03.flac:daa54501a4a25cfccab0e9e3c473810c
dbt2010-06-05t04.flac:7de506d87fae24aafbd831ed3f8e979a
dbt2010-06-05t05.flac:2108e285a30e9d8c7f2e6b0049eaa8c2
dbt2010-06-05t06.flac:3b4f92cad84a0313ba77990ae65df930
dbt2010-06-05t07.flac:7a798fbd9fb9dac72b41d4aac42b6d64
dbt2010-06-05t08.flac:8faa1d111ba1c13e9b5af2aab3507d81
dbt2010-06-05t09.flac:1409b877369521ad75680ea2af9f6d9c
dbt2010-06-05t10.flac:1657e5fd36117a681c13a781aea38459
dbt2010-06-05t11.flac:4e9cb625b43d3e81e020d586e2b27dbf
dbt2010-06-05t12.flac:d86b0635693cd9bf3b5243759b43103e
dbt2010-06-05t13.flac:85c8794a171104a39cc6827294b35e29

Comments
Add Comment
Other Sources (comments)
Source: Neumann SKM... (0) Source: DPA 4022s> Sound... (0)
Date User Comment