Browse Collections Artists Sources   Search Dates

Add Show    List Management    Help


Terrapin Flyer 06/01/14
Quixote's True Blue, Denver, CO
Comments Add Comment    Source Collectors    Add to Collection    Add to Want List    History
Source # 129979 Other Sources
Entered by
Checksums TF_2014_06_01.ffp
Disc Counts 0 / 0
Media Size Compressed: 0.98 MB (1027604 bytes)
Uncompressed: 1.92 GB (2057897568 bytes)
Date Circulated
Date Added
06/06/2014
06/07/2014
Source Summary flac16: 4 Source Matrix:
DPA4022 | DPA 4027 | DPA 4060 | SBD
Source 1: DPA 4022 (XY) V3 -> Tascam DR680
Source 2: DPA 4027 (ORFT) Naiant mid box -> Tascam DR680
Source 3: DPA 4060 (3 foot omni spread) -> Tascam DR680
Source 4: SBD mix from Jon-O > Tascam DR680
Location: FOB, DFC. Mics on stand 8 feet.
Transfer: Tascam DR680 (24/96) wav -> USB cable -> PC
Editing: Wavelab plugins -> Flac(16) Recorded by Patrick H. 
Source Information - Download Text | Download Zip
  Terrapin Flyer
  June 01, 2014
  Quixote's True Blue
  Denver, CO
  Total Time = 194:26

  4 Source Matrix:
     DPA4022 | DPA 4027 | DPA 4060 | SBD

  Source 1: DPA 4022 (XY) V3 -> Tascam DR680

  Source 2: DPA 4027 (ORFT) Naiant mid box
              -> Tascam DR680

  Source 3: DPA 4060 (3 foot omni spread)
             -> Tascam DR680

  Source 4: SBD mix from Jon-O > Tascam DR680

  Location: FOB, DFC. Mics on stand 8 feet.

  Transfer: Tascam DR680 (24/96) wav ->
  USB cable -> PC

  Editing: Wavelab plugins -> Flac(16)

  MD5's and SBE checked and verified.
  06/02/2014

  Recorded by Patrick H.

  Set 1 (64:57)
  01 I'll take a Melody 10:14
  02 Tom Thumb Blues 5:44
  03 Sisters and Brothers 8:26
  04 Race is On 4:01
  05 Forever Young 9:22
  06 Death Don't Have no Mercy 11:40
  07 Midnight Moonlight 7:01
  08 That's What love make you do8:28

  Set 2 (129:18)
  01 Jack Straw 7:05
  02 Waiting in Limbo 11:23
  03 Waiting for a Miracle 6:06
  04 Big Boss Man 8:02
  05 Shakedown Street 11:57
  06 Lucky Ol' Sun 11:49
  07 Brother John 6:10
  08 Stop that Train 10:00
  09 NFA > Other One Jam > NFA 11:40
  10 GDTRFB 7:59
  11 Sugaree 8:18
  12 Eyes of the World 9:01
  13 Ripple 4:40
  14 Band Intro 1:59
  15 Gloria 5:53
  16 I Shall be Released 7:16

  Band:
  Doug Hagman Guitar and Voc's
  Mark Karan Guitar and Voc's
  Melvin Seals Keys and Voc's
  "Wavy" Dave Burlingame
  Daon Hufnus? Drums


  Notes: This was the third and final
  show at Quixote's for TF. First set
  was slightly over an hour and second
  set came in over 2+ hours. Very well
  played and monster show.

  Sound at the venue was very good to
  excellent. Recording sound is very good
  to excellent.  Crowd noise can be
  heard though is minimal.

  Thanks to Jon-O FOH for house mix and
  Quixote's True Blue and Jay and Doug
  Hagman for allowing me to record and
  receive a SBD feed.

  Performance: A
  Sound Quality: A-/A

  Support Live Music!


  shntool
    length     expanded size    cdr  WAVE problems  fmt   ratio  filename
    10:14.71      108476636 B   ---   --   -----    wav  1.0000  TF_2014_06_01_S101.wav
     5:44.69       60843932 B   ---   --   -----    wav  1.0000  TF_2014_06_01_S102.wav
     8:26.47       89368988 B   ---   --   -----    wav  1.0000  TF_2014_06_01_S103.wav
     4:01.66       42667676 B   ---   --   -----    wav  1.0000  TF_2014_06_01_S104.wav
     9:22.51       99256796 B   ---   --   -----    wav  1.0000  TF_2014_06_01_S105.wav
    11:40.46      123588236 B   ---   --   -----    wav  1.0000  TF_2014_06_01_S106.wav
     7:01.22       74316188 B   ---   --   -----    wav  1.0000  TF_2014_06_01_S107.wav
     8:28.34       89691212 B   ---   --   -----    wav  1.0000  TF_2014_06_01_S108.wav
     7:05.25       75028844 B   ---   --   -----    wav  1.0000  TF_2014_06_01_S201.wav
    11:23.45      120587084 B   ---   --   -----    wav  1.0000  TF_2014_06_01_S202.wav
     6:06.10       64585964 B   ---   --   -----    wav  1.0000  TF_2014_06_01_S203.wav
     8:02.53       85149500 B   ---   --   -----    wav  1.0000  TF_2014_06_01_S204.wav
    11:57.04      126488252 B   ---   --   -----    wav  1.0000  TF_2014_06_01_S205.wav
    11:49.03      125074700 B   ---   --   -----    wav  1.0000  TF_2014_06_01_S206.wav
     6:10.29       65336252 B   ---   --   -----    wav  1.0000  TF_2014_06_01_S207.wav
    10:00.09      105861212 B   ---   --   -----    wav  1.0000  TF_2014_06_01_S208.wav
    11:40.62      123625868 B   ---   --   -----    wav  1.0000  TF_2014_06_01_S209.wav
     7:59.27       84559148 B   ---   --   -----    wav  1.0000  TF_2014_06_01_S210.wav
     8:18.52       87969548 B   ---   --   -----    wav  1.0000  TF_2014_06_01_S211.wav
     9:01.37       95519468 B   ---   --   -----    wav  1.0000  TF_2014_06_01_S212.wav
     4:40.20       49439084 B   ---   --   -----    wav  1.0000  TF_2014_06_01_S213.wav
     1:59.73       21163340 B   ---   --   -----    wav  1.0000  TF_2014_06_01_S214.wav
     5:53.48       62382140 B   ---   --   -----    wav  1.0000  TF_2014_06_01_S215.wav
     7:16.03       76917500 B   ---   --   -----    wav  1.0000  TF_2014_06_01_S216.wav
   194:26.06     2057897568 B                            1.0000  (24 files)

  ffp
TF_2014_06_01_S101.flac:57171ab555eb1d1ff7ad0fbe29bfc78f
TF_2014_06_01_S102.flac:317b4499eef6d684fe9fb4f356b1b14a
TF_2014_06_01_S103.flac:b8413060fbe4991505de1ddbac341eeb
TF_2014_06_01_S104.flac:b4a2163967a88f06652dbdc6c78fef7e
TF_2014_06_01_S105.flac:2c8529b44d9cfd59b9b90925b60baf6f
TF_2014_06_01_S106.flac:ef8dae0dc0d0ec1a12fd708326dd4166
TF_2014_06_01_S107.flac:f2da53f53eeea1afa17f4749cb6d8752
TF_2014_06_01_S108.flac:65e260faa0dece2c0af282861114467c
TF_2014_06_01_S201.flac:4583bdee328bd7b47e17f12b6e74c983
TF_2014_06_01_S202.flac:632fa2b7e0063a40484bafdfbe9331ee
TF_2014_06_01_S203.flac:c59b74551007d626038252a3f7f9dc21
TF_2014_06_01_S204.flac:56b2360403b21d58aff843e55c870402
TF_2014_06_01_S205.flac:a4effd9bd951aefdcd7ec7cbc41d7721
TF_2014_06_01_S206.flac:bc9e37f178834a3aefe303fc3cabd2bd
TF_2014_06_01_S207.flac:73ec993ff27f1a05a0617c57868aacbe
TF_2014_06_01_S208.flac:3ed8777c9926466c7678d021c9f9eda6
TF_2014_06_01_S209.flac:0eacc427d1fdc5a04ca087a5ff2b44ce
TF_2014_06_01_S210.flac:2c26bb4230b14ddda07a689ee5d89185
TF_2014_06_01_S211.flac:73ae048b324716ca439e8017a957f64c
TF_2014_06_01_S212.flac:9fec2ab6aa929476b037b88bdb51bf09
TF_2014_06_01_S213.flac:2d26c0a2a238ab2c3e6a533b68af33d9
TF_2014_06_01_S214.flac:d0dee3a73811a47a99940746fdde268e
TF_2014_06_01_S215.flac:294debf2b7f9c0653fb3aee45e5ee575
TF_2014_06_01_S216.flac:d48b57bdab627eb1c732b5e292932b65




Show Checksums
TF_2014_06_01.ffp
TF_2014_06_01_S101.flac:57171ab555eb1d1ff7ad0fbe29bfc78f
TF_2014_06_01_S102.flac:317b4499eef6d684fe9fb4f356b1b14a
TF_2014_06_01_S103.flac:b8413060fbe4991505de1ddbac341eeb
TF_2014_06_01_S104.flac:b4a2163967a88f06652dbdc6c78fef7e
TF_2014_06_01_S105.flac:2c8529b44d9cfd59b9b90925b60baf6f
TF_2014_06_01_S106.flac:ef8dae0dc0d0ec1a12fd708326dd4166
TF_2014_06_01_S107.flac:f2da53f53eeea1afa17f4749cb6d8752
TF_2014_06_01_S108.flac:65e260faa0dece2c0af282861114467c
TF_2014_06_01_S201.flac:4583bdee328bd7b47e17f12b6e74c983
TF_2014_06_01_S202.flac:632fa2b7e0063a40484bafdfbe9331ee
TF_2014_06_01_S203.flac:c59b74551007d626038252a3f7f9dc21
TF_2014_06_01_S204.flac:56b2360403b21d58aff843e55c870402
TF_2014_06_01_S205.flac:a4effd9bd951aefdcd7ec7cbc41d7721
TF_2014_06_01_S206.flac:bc9e37f178834a3aefe303fc3cabd2bd
TF_2014_06_01_S207.flac:73ec993ff27f1a05a0617c57868aacbe
TF_2014_06_01_S208.flac:3ed8777c9926466c7678d021c9f9eda6
TF_2014_06_01_S209.flac:0eacc427d1fdc5a04ca087a5ff2b44ce
TF_2014_06_01_S210.flac:2c26bb4230b14ddda07a689ee5d89185
TF_2014_06_01_S211.flac:73ae048b324716ca439e8017a957f64c
TF_2014_06_01_S212.flac:9fec2ab6aa929476b037b88bdb51bf09
TF_2014_06_01_S213.flac:2d26c0a2a238ab2c3e6a533b68af33d9
TF_2014_06_01_S214.flac:d0dee3a73811a47a99940746fdde268e
TF_2014_06_01_S215.flac:294debf2b7f9c0653fb3aee45e5ee575
TF_2014_06_01_S216.flac:d48b57bdab627eb1c732b5e292932b65

Comments
Add Comment
Date User Comment
06/07/2014 1478 With Melvin Seals & Mark Karan.