Browse Collections Artists Sources   Search Dates

Add Show    List Management    Help


Grateful Dead 03/09/81
Madison Square Garden, New York, NY
Comments Add Comment    Source Collectors    Add to Collection    Add to Want List    History
Source # 130233 Other Sources
Entered by Matt Vernon
Checksums ffp , flac-md5
Disc Counts 0 / 0
Media Size Compressed: 1.03 GB (1110530966 bytes)
Uncompressed: 1.63 GB (1750521700 bytes)
Date Circulated
Date Added
06/11/2014
06/11/2014
Source Summary flac16; Recording by Jim Wise: Master Audience Cassette; 2 Sennheiser 421s> Sony D-5 Location @ Soundboard; Transfer and FLAC encoding by David Minches: June 2014; Dolby B decoded Master played back on Nakamichi Dragon > Korg MR-1000(DSF [1-bit 5.6448 MHz Stereo]); Korg AudioGate > WAV [24/96] > Adobe Audition 3.0> FLAC encoding 
  Archive
Source Information - Download Text | Download Zip
Grateful Dead
March 9, 1981
Madison Square Garden
New York , NY

Recording by Jim Wise:
Master Audience Cassette; 2 Sennheiser 421s> Sony D-5 Location @ Soundboard
Transfer and FLAC encoding by David Minches: June 2014
Dolby B decoded Master played back on Nakamichi Dragon > Korg MR-1000(DSF [1-bit 5.6448 MHz Stereo])
Korg AudioGate > WAV [24/96] > Adobe Audition 3.0> FLAC encoding
metadata added
____________________________________________________________________________________________________

--Set 1--
s1t01  tuning *
s1t02  Feel Like A Stranger *
s1t03  Althea
s1t04  C C Rider
s1t05  Ramble On Rose >
s1t06  El Paso
s1t07  Deep Elem Blues
s1t08  Beat It On Down The Line
s1t09  Bird Song
s1t10  New Minglewood Blues

--Set 2--
s2t01  tuning
s2t02  China Cat Sunflower >
s2t03  I Know You Rider >
s2t04  Samson And Delilah
s2t05  Ship Of Fools
s2t06  Estimated Prophet >
s2t07  Uncle John's Band >
s2t08  Drums >
s2t09  Space >
s2t10  The Other One >
s2t11  Stella Blue >
s2t12  Good Lovin'

--Encore--
s2t13  U.S. Blues

* patched from Barry Glassberg's master: Nakamichi CM700's > Sony TC-D5M
___________________________________________________________________________________________________

    length     expanded size    cdr  WAVE problems  fmt   ratio  filename
     0:39.01        6881996 B   ---   --   ---xx   flac  0.5802  s01t01 - Tuning.flac
     8:31.55       90269804 B   ---   --   ---xx   flac  0.6392  s01t02 - Feel Like a Stranger.flac
     7:51.21       83133836 B   ---   --   ---xx   flac  0.6290  s01t03 - Althea.flac
     7:43.22       81724988 B   ---   --   ---xx   flac  0.6421  s01t04 - C C Rider.flac
     7:39.67       81125228 B   ---   --   ---xx   flac  0.6377  s01t05 - Ramble on Rose.flac
     5:30.17       58252028 B   ---   --   ---xx   flac  0.6323  s01t06 - El Paso.flac
     6:57.37       73645868 B   ---   --   ---xx   flac  0.6518  s01t07 - Deep Elem Blues.flac
     4:08.07       43763708 B   ---   --   ---xx   flac  0.6589  s01t08 - Beat It On Down The Line.flac
    10:51.20      114883484 B   ---   --   ---xx   flac  0.6397  s01t09 - Bird Song.flac
     6:54.64       73180172 B   ---   --   ---xx   flac  0.6614  s01t10 - New Minglewood Blues.flac
     1:00.07       10600508 B   ---   --   ---xx   flac  0.6162  s02t01 - Tuning.flac
     8:28.41       89707676 B   ---   --   ---xx   flac  0.6307  s02t02 - China Cat Sunflower.flac
     7:13.33       76458860 B   ---   --   ---xx   flac  0.6521  s02t03 - I Know You Rider.flac
     7:25.30       78568604 B   ---   --   ---xx   flac  0.6532  s02t04 - Samson and Delilah.flac
    10:14.31      108382556 B   ---   --   ---xx   flac  0.5979  s02t05 - Ship of Fools.flac
    13:55.14      147326972 B   ---   --   ---xx   flac  0.6307  s02t06 - Estimated Prophet.flac
    11:37.36      123035516 B   ---   --   ---xx   flac  0.6419  s02t07 - Uncle John's Band.flac
     2:41.44       28503932 B   ---   --   ---xx   flac  0.5850  s02t08 - Drums.flac
     6:29.38       68709020 B   ---   --   ---xx   flac  0.5837  s02t09 - Space.flac
     7:46.03       82209500 B   ---   --   ---xx   flac  0.6466  s02t10 - The Other One.flac
     9:46.13      103401020 B   ---   --   ---xx   flac  0.6059  s02t11 - Stella Blue.flac
     6:44.17       71305628 B   ---   --   ---xx   flac  0.6580  s02t12 - Good Lovin'.flac
     5:14.26       55450796 B   ---   --   ---xx   flac  0.6541  s02t13 - U. S. Blues.flac
   165:23.44     1750521700 B                            0.6344  (23 files)




Show Checksums
ffp
s01t01 - Tuning.flac:995a908c681269274d595728428dfb1f
s01t02 - Feel Like a Stranger.flac:f1567849f382602b2f0f70943043734b
s01t03 - Althea.flac:3d7cf4219c10a2e0f2a33d270b4f413e
s01t04 - C C Rider.flac:6fd0dd18e0aa803dd373a60f1ea2e2a0
s01t05 - Ramble on Rose.flac:b47f47ef7c8b7b15211cc2740a43dd5b
s01t06 - El Paso.flac:a7d6beebc149bde179ef06e7d30da91d
s01t07 - Deep Elem Blues.flac:7f877b8e61bde7d3b84ed6809632ff25
s01t08 - Beat It On Down The Line.flac:9184ec5546a223724629a5484c3d5985
s01t09 - Bird Song.flac:888a079e439a521103e98aa2e44c54ea
s01t10 - New Minglewood Blues.flac:f43554acd01d555de1659c57b567918e
s02t01 - Tuning.flac:3d1ad18e803507cdf68aaf3a132bd637
s02t02 - China Cat Sunflower.flac:cec5d57169d8e0e27c0d086b27611b40
s02t03 - I Know You Rider.flac:e8dc8752a7e0270ec04c54e6fc01a914
s02t04 - Samson and Delilah.flac:92d292c8e97c9970836b704064a500bd
s02t05 - Ship of Fools.flac:010ac1019e8658d1d55d0b7a4d309093
s02t06 - Estimated Prophet.flac:f7cad6452b7850b94dee2a9da18aae9f
s02t07 - Uncle John's Band.flac:b1f83ba22f6c3a35c0ed7bc8362e4835
s02t08 - Drums.flac:3075bc90e2edbed18e999dd4032231ff
s02t09 - Space.flac:3361622ce7dddad741595607673037c7
s02t10 - The Other One.flac:ce0b3c2b142f700c2e694008bcee4954
s02t11 - Stella Blue.flac:8ed0c61d5d69827784fe5b6797227fe1
s02t12 - Good Lovin'.flac:86ac5b872d799d25e131e87c1cb81700
s02t13 - U. S. Blues.flac:876e14c4accc2e5aa20c8dee481e431e
flac-md5
984dbda39e63d350b04763c1cec6be7e *s01t01 - Tuning.flac
c76349601220b6cfbe9dc3b9bf648923 *s01t02 - Feel Like a Stranger.flac
5b3b4e7922ac5c59c0afb4506bfff43f *s01t03 - Althea.flac
0b67f3545ec36a520dc5f256e2a2aeff *s01t04 - C C Rider.flac
7603e297a5087c8c4e04ca26a45e17fb *s01t05 - Ramble on Rose.flac
ac97dd2dc8a62c3cb439c178c0eff6c0 *s01t06 - El Paso.flac
265fec7406ea332378725bb6383c577d *s01t07 - Deep Elem Blues.flac
af39f260a660efb5d19d78212ef25301 *s01t08 - Beat It On Down The Line.flac
97d76ebf609ce016160ba7d2a914f05f *s01t09 - Bird Song.flac
1bc84a3c82d13aee34aa282d446ecec7 *s01t10 - New Minglewood Blues.flac
5d86e296496553a927ad83338c4ba649 *s02t01 - Tuning.flac
f13e503c6a355b82b8cfd885f68317c9 *s02t02 - China Cat Sunflower.flac
9ecefa9f24bff9018c07ab8845a4a55c *s02t03 - I Know You Rider.flac
1ff3cc9138360197d74eb5c929b78787 *s02t04 - Samson and Delilah.flac
1685d1ca636e4ac713d1977cc5105b85 *s02t05 - Ship of Fools.flac
c447e4a180a2e83d4b4fc5d04bf5e011 *s02t06 - Estimated Prophet.flac
8ac9e08695132521346ebe01aa5ac97f *s02t07 - Uncle John's Band.flac
900d790dd5bc8cbbb32bbfc4553e2e84 *s02t08 - Drums.flac
f40d864a5c7f591063bbec27cb2b043e *s02t09 - Space.flac
ef136b7e0e011a732475848a354bc6f2 *s02t10 - The Other One.flac
89c84a2729e38da774377ad31f717bfe *s02t11 - Stella Blue.flac
d905829eac093f1703f3e8c37d1a1437 *s02t12 - Good Lovin'.flac
c2dd1e61868ea4ff201c6b5c0aa4de7d *s02t13 - U. S. Blues.flac

Comments
Add Comment
Other Sources (comments)
Recording by Barry... (0) Sources: Master Soundboard... (1) Recording by Barry... (0) flac16; Recording... (0) flac16; Recording by... (0) flac24/96; Recording... (0) flac16; Recording... (1) flac24; Recording... (0) flac24; Matrix by... (0) flac16; Matrix by... (1)
Date User Comment