Browse Collections Artists Sources   Search Dates

Add Show    List Management    Help


Grateful Dead 08/12/81
Salt Palace, Salt Lake City, UT
Comments Add Comment    Source Collectors    Add to Collection    Add to Want List    History
Source # 130235 Other Sources
Entered by Matt Vernon
Checksums flac-md5 , ffp
Disc Counts 2 / 3
Media Size Compressed: 1 GB (1072117581 bytes)
Date Circulated
Date Added
06/11/2014
06/11/2014
Source Summary flac16; Recording Info: SBD > MC > R > DAT > CD; Transfer Info: CD > WAV > Sound Forge 10 > TLH > FLAC 
  Archive
Source Information - Download Text | Download Zip
THE GRATEFUL DEAD
The Salt Palace
Salt Lake City, UT
August 12, 1981

Recording Info:
SBD > MC > R > DAT > CD
Transfer Info:
CD > WAV > Sound Forge 10 > TLH > FLAC

FIXES AND NOTES;
Remastered version of shnid 10548. All patches from aud shnid 95346.
Several patches were on 10548, including Disc 1, tracks 1-2
and first 36 seconds of track 3. Disc 3, track 1 starting at 0:24 to end
Disc 3, track 2, 0:00 - 2:07

I used shnid 95346 to patch the following;
Disc 1, track 9, 3:33 - 4:03
Disc 3, track 8, 2:30 - end
Disc 3, track 9, 0:00 - 0:11
Pitch corrected in set 2... set 1 was OK.
This fine show, neglected for many years, is now back in circulation.

Mastered, patched, and retracked by Bill Guarneri, June 11, 2014.

Set 1, Disc 1
01. Alabama Getaway >
02. Greatest Story Ever Told
03. Friend Of The Devil
04. Mama Tried >
05. Mexacali Blues
06. Jack-A-Roe
07. C C Rider
08. Althea
09. Lost Sailor >
10 Saint Of Circumstance

Set 2, Disc 2
01. Might As Well
02. Women Are Smarter
03. Scarlet Begonias >
04. Fire On The Mountain

Set 2, Disc 3
01. Estimated Prophet >
02. Eyes Of The World >
03. Drums >
04. Space >
05. Spanish Jam >
06. Truckin' >
07. Morning Dew >
08. Around And Around
09. Good Lovin'
Encore:
10. U. S. Blues

length     expanded size    cdr  WAVE problems  fmt   ratio  filename
     4:51.00       51332444 B   ---   --   ---xx   flac  0.5857  gd1981-08-12d1t01.flac
     4:36.27       48749948 B   ---   --   ---xx   flac  0.5774  gd1981-08-12d1t02.flac
     9:35.14      101462972 B   ---   --   ---xx   flac  0.5756  gd1981-08-12d1t03.flac
     2:27.23       25984940 B   ---   --   ---xx   flac  0.6273  gd1981-08-12d1t04.flac
     4:54.71       52028636 B   ---   --   ---xx   flac  0.6246  gd1981-08-12d1t05.flac
     4:44.66       50252876 B   ---   --   ---xx   flac  0.6542  gd1981-08-12d1t06.flac
     7:45.73       82197740 B   ---   --   ---xx   flac  0.6358  gd1981-08-12d1t07.flac
     8:57.54       94853852 B   ---   --   ---xx   flac  0.6118  gd1981-08-12d1t08.flac
     7:04.31       74866556 B   ---   --   ---xx   flac  0.5899  gd1981-08-12d1t09.flac
     6:53.12       72881468 B   ---   --   ---xx   flac  0.6483  gd1981-08-12d1t10.flac
     4:19.37       45774668 B   ---   --   ---xx   flac  0.7019  gd1981-08-12d2t01.flac
     5:09.41       54604076 B   ---   --   ---xx   flac  0.6854  gd1981-08-12d2t02.flac
    11:32.22      122120588 B   ---   --   ---xx   flac  0.6406  gd1981-08-12d2t03.flac
    11:31.22      121944188 B   ---   --   ---xx   flac  0.5896  gd1981-08-12d2t04.flac
    11:11.51      118484396 B   ---   --   ---xx   flac  0.6883  gd1981-08-12d3t01.flac
     7:56.68       84126380 B   ---   --   ---xx   flac  0.6183  gd1981-08-12d3t02.flac
    12:11.26      129009596 B   ---   --   ---xx   flac  0.4808  gd1981-08-12d3t03.flac
     3:04.48       32570540 B   ---   --   ---xx   flac  0.4560  gd1981-08-12d3t04.flac
     2:46.20       29329484 B   ---   --   ---xx   flac  0.5608  gd1981-08-12d3t05.flac
     7:42.04       81506252 B   ---   --   ---xx   flac  0.6101  gd1981-08-12d3t06.flac
    11:03.23      117007340 B   ---   --   ---xx   flac  0.5534  gd1981-08-12d3t07.flac
     3:49.32       40470908 B   ---   --   ---xx   flac  0.5839  gd1981-08-12d3t08.flac
     7:40.26       81205196 B   ---   --   ---xx   flac  0.6700  gd1981-08-12d3t09.flac
     5:08.02       54335948 B   ---   --   ---xx   flac  0.6077  gd1981-08-12d3t10.flac
   166:57.43     1767100992 B                            0.6067  (24 files)



Show Checksums
flac-md5
f34acb1931a3c2606656504d967fb4c5 *gd1981-08-12d1t01.flac
65019e17fcc365146452e9b5e6ba7456 *gd1981-08-12d1t02.flac
13da8ddc4f089ad67fa77d7f78ac88b8 *gd1981-08-12d1t03.flac
2fe22ad75f45c6f3f062bfd61cf1f50b *gd1981-08-12d1t04.flac
27f1a8de9b9da0cb493aa469b9e6a168 *gd1981-08-12d1t05.flac
9c2cdf2cc44e3448f07bfb76907c8729 *gd1981-08-12d1t06.flac
ae2cf1f84b5ec91b8aca15a26de4a5d4 *gd1981-08-12d1t07.flac
5d64eb91765c98f426966ba5c899e677 *gd1981-08-12d1t08.flac
4cd52a3018e218f23806b489913e559c *gd1981-08-12d1t09.flac
285d9332834250423440d3699d5f7c1f *gd1981-08-12d1t10.flac
f7dd6e4e66bc08ea1bbcd57a354e0d59 *gd1981-08-12d2t01.flac
8c5a7032f9f5b867efb87844dc2cfc36 *gd1981-08-12d2t02.flac
7199f73668f7cc5dc2caeab4fd055079 *gd1981-08-12d2t03.flac
78b4aab84fe5bb28f32f45b6060eadd0 *gd1981-08-12d2t04.flac
191ce5572dc001f6424593ea1e5955c4 *gd1981-08-12d3t01.flac
df46411a5a6b62444d78d103dfca6e61 *gd1981-08-12d3t02.flac
f782beecdc5b6a02bc69785a3bd707e9 *gd1981-08-12d3t03.flac
0f3d193c57daed18c0ce6cde18391e96 *gd1981-08-12d3t04.flac
973eb1d7c555a4745079fd539c2fbd52 *gd1981-08-12d3t05.flac
d8001395cb3250c3786599012ac9a16e *gd1981-08-12d3t06.flac
107bd70e695e074dca7fdb0db82934e3 *gd1981-08-12d3t07.flac
64e7228598b858650282be4ce64408d3 *gd1981-08-12d3t08.flac
aded23f3688009cb798e9f4392660f1c *gd1981-08-12d3t09.flac
68c7a55f5352f8c27151fd4559cabe32 *gd1981-08-12d3t10.flac
ffp
gd1981-08-12d1t01.flac:598a67e59fc0c0713355799377c511d6
gd1981-08-12d1t02.flac:114d5fc24f19167765c184a857708fd4
gd1981-08-12d1t03.flac:c2ecf1c259e9d14a234199036b059d49
gd1981-08-12d1t04.flac:b34aec46fc7479915ebbc7d621835dab
gd1981-08-12d1t05.flac:b9a513c23641894e49bc684b22529edc
gd1981-08-12d1t06.flac:65b7ea9d970fb9fe1ee5e8d1aa67ce0a
gd1981-08-12d1t07.flac:49d1367baca476e6ba71fb54ddf85612
gd1981-08-12d1t08.flac:895483eba7d651661c01f2e3550de763
gd1981-08-12d1t09.flac:e446f826c8b7a0ab5c06ea1464fef2da
gd1981-08-12d1t10.flac:68e6f60dd00476222bdc3d4934aa47dc
gd1981-08-12d2t01.flac:363191c90f1a1abb1c1cbb7a5ba759b0
gd1981-08-12d2t02.flac:11cb1b65f79aa9ca98ea36e24f60b99e
gd1981-08-12d2t03.flac:9864577727ca37a63fe2e438f5a11d7c
gd1981-08-12d2t04.flac:01b382033ffee68c8d285af2679a243a
gd1981-08-12d3t01.flac:01ef6c47e82ba15421feca8be76e5669
gd1981-08-12d3t02.flac:eeb50a7fc95d79e4fac804c80cdb3cec
gd1981-08-12d3t03.flac:b6e046f47ad1a67a7506bed5bc7a7268
gd1981-08-12d3t04.flac:09b30643cd57e2d9d3e6d4ea24bbaf5d
gd1981-08-12d3t05.flac:87d300cf381c2182dccc1ce063b7bdad
gd1981-08-12d3t06.flac:74ef036c35b3489b4648637b51f8b51c
gd1981-08-12d3t07.flac:d77f729e102dbdc69e454bf962de4a93
gd1981-08-12d3t08.flac:4b8737535e76ae5bc6f630b49e39c2ce
gd1981-08-12d3t09.flac:cfface820187b0ec94730335e0872702
gd1981-08-12d3t10.flac:25480592d019a68d68d59f114590aa6b

Comments
Add Comment
Other Sources (comments)
SBD>MC>R>DAT>CDR (with... (1) flac16; Source: aud... (0) flac24; Partial... (0) flac16/48kHz;... (0) flac16/48 Source... (0) flac24/96 Source... (0)
Date User Comment