Browse Collections Artists Sources   Search Dates

Add Show    List Management    Help


Drive-By Truckers 09/22/10
Soul Kitchen, Mobile, AL
Comments Add Comment    Source Collectors    Add to Collection    Add to Want List    History
Source # 130276 Other Sources
Entered by ziko
Checksums ffp
Disc Counts 0 / 0
Media Size
Date Circulated
Date Added
09/23/2010
06/12/2014
Source Summary Source: AKG c460b/a60m/ck1(DIN)>Mini MP>HD-P2 @ 24/48 Location: DFC, 35' from stage @ 9' high Transfer: CF Card>HDD>Wavelab(gain raised)>Cdwave>Wavelab>Flac 
  Archive
Source Information - Download Text | Download Zip
Drive By Truckers
2010-09-22
Soul Kitchen
Mobile, AL

Source: AKG c460b/a60m/ck1(DIN)>Mini MP>HD-P2 @ 24/48
Location: DFC, 35' from stage @ 9' high
Transfer: CF Card>HDD>Wavelab(gain raised)>Cdwave>Wavelab>Flac
Taper: jkbyram


**16 bit**

Show was 1 set

01. Intro Music
02. Bulldozers And Dirt
03. Carl Perkins Cadillac
04. Santa Fe
05. Women Without Whiskey
06. The Deeper In
07. Birthday Boy
08. The Whig He Made Her Wear
09. Three Dimes Down
10. Hell No I Ain't Happy
11. Gravitys Gone
12. Drag The Lake Charlie
13. When The Pin Hits The Shell
14. Sink Hole
15. Get Downtown
16. Told You So
17. This Fucking Job
18. Uncle Frank
19. Lookout Mountain
20. Zip City
21. Ronnie And Neil
22. Crowd
Encore
23. Marry Me
24. I Used To Be A Cop
25. Let There Be Rock
26. Puttin' People On The Moon


suggested disc split after track 14

Notes:
-great crowd, not large but a room of music fans, No
trying to talk over the band, no random drunken chit
chat, music fans actually listening to the music, fist
pumping and cheering all night. Thank you Mobile!!


-wavelab used to raise gain and resample/dither to 16 bit


    length     expanded size    cdr  WAVE problems  fmt   ratio  filename
     2:18.50       24460844 B   ---   --   -----    wav  1.0000  dbt2010-09-22t01.wav
     5:27.72       57852188 B   ---   --   -----    wav  1.0000  dbt2010-09-22t02.wav
     5:36.57       59404508 B   ---   --   -----    wav  1.0000  dbt2010-09-22t03.wav
     3:30.41       37140476 B   ---   --   -----    wav  1.0000  dbt2010-09-22t04.wav
     4:29.31       47524556 B   ---   --   -----    wav  1.0000  dbt2010-09-22t05.wav
     3:49.31       40468556 B   ---   --   -----    wav  1.0000  dbt2010-09-22t06.wav
     3:48.58       40355660 B   ---   --   -----    wav  1.0000  dbt2010-09-22t07.wav
     7:26.18       78716780 B   ---   --   -----    wav  1.0000  dbt2010-09-22t08.wav
     2:57.39       31314572 B   ---   --   -----    wav  1.0000  dbt2010-09-22t09.wav
     7:27.16       78888476 B   ---   --   -----    wav  1.0000  dbt2010-09-22t10.wav
     3:37.12       38307068 B   ---   --   -----    wav  1.0000  dbt2010-09-22t11.wav
     4:12.40       44546924 B   ---   --   -----    wav  1.0000  dbt2010-09-22t12.wav
     4:09.48       44036540 B   ---   --   -----    wav  1.0000  dbt2010-09-22t13.wav
     5:50.52       61862348 B   ---   --   -----    wav  1.0000  dbt2010-09-22t14.wav
     3:23.44       35912732 B   ---   --   -----    wav  1.0000  dbt2010-09-22t15.wav
     2:07.06       22416956 B   ---   --   -----    wav  1.0000  dbt2010-09-22t16.wav
     5:17.24       55975292 B   ---   --   -----    wav  1.0000  dbt2010-09-22t17.wav
     5:17.05       55930604 B   ---   --   -----    wav  1.0000  dbt2010-09-22t18.wav
     5:01.26       53157596 B   ---   --   -----    wav  1.0000  dbt2010-09-22t19.wav
     5:20.52       56570348 B   ---   --   -----    wav  1.0000  dbt2010-09-22t20.wav
     5:28.57       57993308 B   ---   --   -----    wav  1.0000  dbt2010-09-22t21.wav
     5:09.19       54552332 B   ---   --   -----    wav  1.0000  dbt2010-09-22t22.wav
     5:49.24       61620092 B   ---   --   -----    wav  1.0000  dbt2010-09-22t23.wav
     6:42.51       71032796 B   ---   --   -----    wav  1.0000  dbt2010-09-22t24.wav
     6:46.49       71733692 B   ---   --   -----    wav  1.0000  dbt2010-09-22t25.wav
     7:25.60       78639164 B   ---   --   -----    wav  1.0000  dbt2010-09-22t26.wav
   128:32.07     1360414408 B                            1.0000  (26 files)

Show Checksums
ffp
dbt2010-09-22t01.flac:c58c4bc905e6b448523b3c453d3fa85c
dbt2010-09-22t02.flac:261b1e8b0fbb009e4272b1bc3fa6dc97
dbt2010-09-22t03.flac:fc8f62098a527477c427c87983aa3013
dbt2010-09-22t04.flac:ffc31ee12397361f72b4a69143791221
dbt2010-09-22t05.flac:796e732c3fec9a6ce3edaef3bba5a275
dbt2010-09-22t06.flac:cf9d9bea352e19bf1b34775f86336f25
dbt2010-09-22t07.flac:f1023b0eba8214ccde4acd0e78bf4ade
dbt2010-09-22t08.flac:4a490457b7675001d3e430b0cab80470
dbt2010-09-22t09.flac:2587bb6e56f33e9bc431072c6f8ea017
dbt2010-09-22t10.flac:9c95ff12c0ea37f3c62805b4b00baa01
dbt2010-09-22t11.flac:a985935ae22efc7d7d5e7ca811ef3ae1
dbt2010-09-22t12.flac:cfcc4a63551761740a1b76faad3404a4
dbt2010-09-22t13.flac:0aa4e8a0654dc2fed56fb87453119c66
dbt2010-09-22t14.flac:2fcf52ff2b04175a6eb74da8eed4dee4
dbt2010-09-22t15.flac:ce74960b962af25950df3461aaaf31e3
dbt2010-09-22t16.flac:89967d1827392e6c2c0f8e24818dcc17
dbt2010-09-22t17.flac:34ca2e81e780b34ced9bae7c56702a08
dbt2010-09-22t18.flac:263c90e2b78194f4391eb6eb8bb32026
dbt2010-09-22t19.flac:af8b9bcfce3aeb1c67619efa52793ebb
dbt2010-09-22t20.flac:d0c4ad4004c3baad9ff2e0bf11dd7b02
dbt2010-09-22t21.flac:ffb8b759e9da05532bc7a1a3ac4da7da
dbt2010-09-22t22.flac:47fffa7712e2d97f39937a8c45e5de82
dbt2010-09-22t23.flac:bf8dc8c28b720a9117372df6bb84355b
dbt2010-09-22t24.flac:aaa4a30a05c8d6be638eed836aa0a796
dbt2010-09-22t25.flac:125d8804d2ee925e19e6dcac6711344b
dbt2010-09-22t26.flac:f4dc1ece600aadf1f6a64da11bf965f7

Comments
Add Comment
Date User Comment