Browse Collections Artists Sources   Search Dates

Add Show    List Management    Help


Grateful Dead 08/12/79
Red Rocks Ampitheatre, Morrison, CO
Comments Add Comment    Source Collectors    Add to Collection    Add to Want List    History
Source # 130347 Other Sources
Entered by Gary Field
Checksums flac-md5 , ffp
Disc Counts 2 / 3
Media Size Compressed: 471.91 MB (494828781 bytes)
Date Circulated
Date Added
06/16/2014
06/15/2014
Source Summary flac16; Recording Info: SBD > MC > R > PCM > CD; Transfer Info: CD > WAV > Sound Forge 10 > TLH > FLAC 
  Archive
Source Information - Download Text | Download Zip
THE GRATEFUL DEAD
Red Rocks Amphitheater
Morrison, CO
August 12, 1979

Recording Info:
SBD > MC > R > PCM > CD
Transfer Info:
CD > WAV > Sound Forge 10 > TLH > FLAC

FIXES AND NOTES:
Remastered, retracked version of shnid 9288.
Patched tracks are from aud shnid 107166.
Entire show is 2 channel MONO.
Pitch and track timing was a major fix. Big improvement.

Set 1, disc 1, track 1 patched at 3:33 - 3:36
Set 1, disc 1, track 8 patched at 2:55 - 4:20
Set 2, disc 3, track 8 patched at 0:00 - 0:33

Another neglected performance now returned to circulation.
Mastered, fixed and retracked by Bill Guarneri, June 16, 2014.

Set 1, Disc 1
01. Promised Land
02. They Love Each Other
03. Mama Tried >
04. Mexicali Blues
05. Peggy - O
06. Lazy Lightning
07. Supplication
08. Brown Eyed Women
09. Looks Like rain
10. Althea
11. Passenger

Set 2, Disc 2
01. China Cat Sunflower >
02. I Know You Rider
03. Lost Sailor
04. Don't Ease Me In
05. Estimated Prophet >

Set 2, Disc 3
01. Eyes Of The World >
02. Jam >
03. Drums >
04. Space >
05. Not Fade Away >
06. Black Peter >
07. Around And Around
08. U. S. Blues

length     expanded size    cdr  WAVE problems  fmt   ratio  filename
     4:19.58       45824060 B   ---   --   ---xx   flac  0.2689  gd1979-08-12d1t01.flac
     6:58.32       73810508 B   ---   --   ---xx   flac  0.2643  gd1979-08-12d1t02.flac
     2:34.66       27320876 B   ---   --   ---xx   flac  0.2964  gd1979-08-12d1t03.flac
     4:42.09       49766012 B   ---   --   ---xx   flac  0.2971  gd1979-08-12d1t04.flac
     8:41.40       91998524 B   ---   --   ---xx   flac  0.2713  gd1979-08-12d1t05.flac
     3:31.17       37260428 B   ---   --   ---xx   flac  0.2968  gd1979-08-12d1t06.flac
     5:05.51       53921996 B   ---   --   ---xx   flac  0.2744  gd1979-08-12d1t07.flac
     5:20.54       56575052 B   ---   --   ---xx   flac  0.2814  gd1979-08-12d1t08.flac
     7:25.13       78528620 B   ---   --   ---xx   flac  0.2743  gd1979-08-12d1t09.flac
     7:56.13       83997020 B   ---   --   ---xx   flac  0.2936  gd1979-08-12d1t10.flac
     4:56.01       52216796 B   ---   --   ---xx   flac  0.2995  gd1979-08-12d1t11.flac
     4:50.57       51290108 B   ---   --   ---xx   flac  0.2985  gd1979-08-12d2t01.flac
     6:58.60       73876364 B   ---   --   ---xx   flac  0.2743  gd1979-08-12d2t02.flac
     6:41.58       70872860 B   ---   --   ---xx   flac  0.2925  gd1979-08-12d2t03.flac
     3:26.63       36486620 B   ---   --   ---xx   flac  0.2934  gd1979-08-12d2t04.flac
    13:26.04      142187852 B   ---   --   ---xx   flac  0.2775  gd1979-08-12d2t05.flac
     9:37.18      101825180 B   ---   --   ---xx   flac  0.2904  gd1979-08-12d3t01.flac
    10:37.16      112404476 B   ---   --   ---xx   flac  0.2687  gd1979-08-12d3t02.flac
     8:41.67       92062028 B   ---   --   ---xx   flac  0.2422  gd1979-08-12d3t03.flac
     6:41.49       70851692 B   ---   --   ---xx   flac  0.2951  gd1979-08-12d3t04.flac
    13:20.47      141230588 B   ---   --   ---xx   flac  0.2611  gd1979-08-12d3t05.flac
    10:06.57      107032508 B   ---   --   ---xx   flac  0.2567  gd1979-08-12d3t06.flac
     7:49.24       82788092 B   ---   --   ---xx   flac  0.2688  gd1979-08-12d3t07.flac
     5:36.24       59326892 B   ---   --   ---xx   flac  0.2609  gd1979-08-12d3t08.flac
   169:26.73     1793455152 B                            0.2759  (24 files)



Show Checksums
flac-md5
03a9e17deb987515c3dfd2ac63602d86 *gd1979-08-12d1t01.flac
2d0fdf499f0fd189026b80f8cd2b2b78 *gd1979-08-12d1t02.flac
95db14178322539de05dc70d43f3ba66 *gd1979-08-12d1t03.flac
e261cf5d7a2de40534b32814e8bd394c *gd1979-08-12d1t04.flac
66ee5c66e4ee94217a8fb3d8ad9f4ffe *gd1979-08-12d1t05.flac
81c5320adabf576f68f024a0ad5e05e9 *gd1979-08-12d1t06.flac
056dc239750a2e4f42a69ed25e6bbee0 *gd1979-08-12d1t07.flac
426a67deddbff6ed1b0c91852ccfedf0 *gd1979-08-12d1t08.flac
69fbcdc5bef56e31b8cb338d38bbb507 *gd1979-08-12d1t09.flac
3c1d6146ee043eee9a682f9fdd156a64 *gd1979-08-12d1t10.flac
104ce8b5810c339fa0c1e30039c818a5 *gd1979-08-12d1t11.flac
af9357a0d4c691f2b14c00ac39396531 *gd1979-08-12d2t01.flac
e434cd53ba66c5597414144c3ecf0a63 *gd1979-08-12d2t02.flac
e43bb473758b3d82b4ceb1943d0b352d *gd1979-08-12d2t03.flac
7690227f25ff33c16de49d361c067ba3 *gd1979-08-12d2t04.flac
138e779299587588a8b645ba969e35ef *gd1979-08-12d2t05.flac
a509ff91abf438772d28e661346a987a *gd1979-08-12d3t01.flac
b47be8318f4019b2450f731941c253f7 *gd1979-08-12d3t02.flac
5f70ced1915ab6a49225524bd7f048a4 *gd1979-08-12d3t03.flac
f03c2ed04ab7dfeca94d3c3bb43a7e18 *gd1979-08-12d3t04.flac
e74e5aa7792c75c8e5638e572713f274 *gd1979-08-12d3t05.flac
4749175088fe539d51f0cfdc8146f524 *gd1979-08-12d3t06.flac
0c75ff4d1bedbe17ab660ae0bdd7e885 *gd1979-08-12d3t07.flac
960070bbf84d4ca9b211a79ae8095e92 *gd1979-08-12d3t08.flac
ffp
gd1979-08-12d1t01.flac:745636f45008e2ef15b423f9264c8c33
gd1979-08-12d1t02.flac:1b054fd01277de28fb6f1399b7e9ae25
gd1979-08-12d1t03.flac:ebd6a389ac86bc77a54e5d96b3a71f6b
gd1979-08-12d1t04.flac:7464e8338f5a1305eac76240bf56f28d
gd1979-08-12d1t05.flac:6a86be09fd4fcef43a867a364d64203e
gd1979-08-12d1t06.flac:7475b8b01b320e74ca45e561c49a3b23
gd1979-08-12d1t07.flac:49860f71369e218b090b90fd1979a00a
gd1979-08-12d1t08.flac:a8a880e213dfe45ecb61c485dd348944
gd1979-08-12d1t09.flac:295faba48c8e5054532c48b1cdcac5ae
gd1979-08-12d1t10.flac:9a33cd227b8a48343b1c88eb072d3f5a
gd1979-08-12d1t11.flac:4fe9e025debe25790c7f84a817f8593c
gd1979-08-12d2t01.flac:51c3688ace6cf1731ed5e5cf5b4c0dad
gd1979-08-12d2t02.flac:865a866a50823a858029f6311c88c11e
gd1979-08-12d2t03.flac:f514bdaedd11fc8ed010e158153bfd27
gd1979-08-12d2t04.flac:da0fa13daa411b3136004611984139ec
gd1979-08-12d2t05.flac:852fb40cd88f3f3051905b7a292abbe7
gd1979-08-12d3t01.flac:fc4e1497bd4dc77f4393e12b7290882b
gd1979-08-12d3t02.flac:2fc985ea532ad6002ee33ad926e0523e
gd1979-08-12d3t03.flac:ccbf070e9b01ef22b57ecca329aa43ce
gd1979-08-12d3t04.flac:457c9630d053002848ea735728ebf6f9
gd1979-08-12d3t05.flac:a6ad72bb0f1f51af218bbd00681aa5b7
gd1979-08-12d3t06.flac:64d19198e58268dc0f6f287d534ad77f
gd1979-08-12d3t07.flac:bcd5d21dde4912fe5b6cd4620a0fd75e
gd1979-08-12d3t08.flac:809166109290675bd5305dd052ca878e

Comments
Add Comment
Other Sources (comments)
Master Soundboard Cassette... (5) flac16; Seamless fix... (4) flac16; Master... (0) flac16; Analog... (0)
Date User Comment
12/19/2014 Terrapanda Does this fileset seem small to anybody? The SHN version is over twice as big.
12/20/2014 Yurkovic FLAC will take advantage of a mono recording and compress it down accordingly.
c.f. http://www.hydrogenaud.io/forums/index.php?showtopic=97537
12/31/2014 charliemiller Why is this mono when shnid 9288 is stereo?