Browse Collections Artists Sources   Search Dates

Add Show    List Management    Help


Grateful Dead 12/04/79
Uptown Theater, Chicago, IL
Comments Add Comment    Source Collectors    Add to Collection    Add to Want List    History
Source # 130387 Other Sources
Entered by Matt Vernon
Checksums flac-md5 , ffp
Disc Counts 2 / 3
Media Size Compressed: 830.53 MB (870869190 bytes)
Date Circulated
Date Added
06/21/2014
06/21/2014
Source Summary flac16; Recording Info: SBD > MC > C > DAT > CD; Transfer Info: CD > WAV > Sound Forge 10 > TLH > FLAC 
  Archive
Source Information - Download Text | Download Zip
THE GRATEFUL DEAD
Uptown Theater
Chicago, IL
December 4, 1979

Recording Info:
SBD > MC > C > DAT > CD
Transfer Info:
CD > WAV > Sound Forge 10 > TLH > FLAC

FIXES AND NOTES:
Remastered, retracked, patched version of shnid 2535
Patches taken from aud version of shnid 83595
Pitch and track timing was a major problem. Now fixed.
Vocal levels were attenuated for proper balance.
Fades on several tracks for better continuity.

Set 1, Disc 1, track 1 patched at 0:00 - 0:12
Set 2, Disc 3, track 1 patched at 0:00 - end
Set 2, Disc 3, track 6 patched at 5:36 to end

A very solid performance with nice fidelity and natural dynamics.
A long neglected jewel back in general circulation. I love this show!

Mastered, retracked and patched by Bill Guarneri, June 20, 2014

Set 1, Disc 1
01. Jack Straw
02. Peggy-O
03. Mama Tried >
04. Mexacali Blues
05. They Love Each Other
06. New Minglewood Blues
07. Stagger Lee
08. Passenger >
09. Deal

Set 2, Disc 2
01. China Cat Sunflower >
02. I Know You Rider
03. Looks Like Rain
04. Estimated Prophet >
05. Franklin's Tower >
06. Jam

Set 2, Disc 3
01. Drums
02. Space >
03. Not Fade Away
04. Stella Blue >
05. Sugar Magnolia
Encore;
06. U. S. Blues

length     expanded size    cdr  WAVE problems  fmt   ratio  filename
     6:44.29       71333852 B   ---   --   ---xx   flac  0.5508  gd1979-12-04d1t01.flac
     7:27.16       78888476 B   ---   --   ---xx   flac  0.4995  gd1979-12-04d1t02.flac
     2:36.27       27581948 B   ---   --   ---xx   flac  0.5702  gd1979-12-04d1t03.flac
     4:53.33       51762860 B   ---   --   ---xx   flac  0.5389  gd1979-12-04d1t04.flac
     7:11.04       76037852 B   ---   --   ---xx   flac  0.4944  gd1979-12-04d1t05.flac
     7:35.46       80370236 B   ---   --   ---xx   flac  0.5287  gd1979-12-04d1t06.flac
     7:57.16       84180476 B   ---   --   ---xx   flac  0.5649  gd1979-12-04d1t07.flac
     5:03.06       53463356 B   ---   --   ---xx   flac  0.5823  gd1979-12-04d1t08.flac
     4:52.55       51638204 B   ---   --   ---xx   flac  0.5584  gd1979-12-04d1t09.flac
     6:55.61       73349516 B   ---   --   ---xx   flac  0.5476  gd1979-12-04d2t01.flac
     7:08.20       75546284 B   ---   --   ---xx   flac  0.5588  gd1979-12-04d2t02.flac
     8:26.00       89258444 B   ---   --   ---xx   flac  0.4915  gd1979-12-04d2t03.flac
    11:43.16      124046876 B   ---   --   ---xx   flac  0.5361  gd1979-12-04d2t04.flac
    10:35.57      112148108 B   ---   --   ---xx   flac  0.5413  gd1979-12-04d2t05.flac
     9:33.47      101187788 B   ---   --   ---xx   flac  0.5260  gd1979-12-04d2t06.flac
     6:43.13       71119820 B   ---   --   ---xx   flac  0.4884  gd1979-12-04d3t01.flac
     6:22.01       67387196 B   ---   --   ---xx   flac  0.4526  gd1979-12-04d3t02.flac
     8:42.71       92247836 B   ---   --   ---xx   flac  0.5714  gd1979-12-04d3t03.flac
     8:52.50       93962444 B   ---   --   ---xx   flac  0.4909  gd1979-12-04d3t04.flac
     8:43.47       92367788 B   ---   --   ---xx   flac  0.5796  gd1979-12-04d3t05.flac
     5:53.17       62309228 B   ---   --   ---xx   flac  0.5883  gd1979-12-04d3t06.flac
   154:01.32     1630188588 B                            0.5342  (21 files)



Show Checksums
flac-md5
6ef8c14945e37389e3b8d1f4446b9973 *gd1979-12-04d1t01.flac
ab2cd92bd7b6bd24fce696fa2eea5608 *gd1979-12-04d1t02.flac
880d555fc44f4ce4ee721d9b6214b89d *gd1979-12-04d1t03.flac
1a5eec57d1e6802829b4d8b5ad02671f *gd1979-12-04d1t04.flac
ee68f808f350c91a6faca1e8f40b3d67 *gd1979-12-04d1t05.flac
d22f2cb156a96b45ad55fc72855d2378 *gd1979-12-04d1t06.flac
98d80fd56fb00f15d40320fcc16e1007 *gd1979-12-04d1t07.flac
dbd28ced5176f6267eb3a86ba4fe8587 *gd1979-12-04d1t08.flac
d83c395b7fc3076c7daa22fc74f0f63d *gd1979-12-04d1t09.flac
809f995486f9221d3b31fb6ca848479c *gd1979-12-04d2t01.flac
24b9ac1f34ce23cec7af63469cbd843c *gd1979-12-04d2t02.flac
d779d562253a74d18bf47bd52b674d15 *gd1979-12-04d2t03.flac
d71d6bd49eefbb32045bae1b3c134691 *gd1979-12-04d2t04.flac
1d4e4bf0a2e493392d3ba300ba3b3705 *gd1979-12-04d2t05.flac
596d7c7d086879c8c5639bbbb82139b7 *gd1979-12-04d2t06.flac
584330a3c549de2a0614fa905a14cabc *gd1979-12-04d3t01.flac
655174a77b08296c322161dc32f89709 *gd1979-12-04d3t02.flac
22c3743680faf8caccd2a81e34d251d0 *gd1979-12-04d3t03.flac
a7c93309fbc7836784205557fc9747db *gd1979-12-04d3t04.flac
b9fb11710df9e38b5e298f50491187c9 *gd1979-12-04d3t05.flac
3069d7d557f7e445e91bf4cfec86d244 *gd1979-12-04d3t06.flac
ffp
gd1979-12-04d1t01.flac:5c650bda08f44a90dac8fea787b165f3
gd1979-12-04d1t02.flac:4816af3affeb19851f79e63374df60d5
gd1979-12-04d1t03.flac:4ec8a70e9a5ff2bbafe14f2bdd007290
gd1979-12-04d1t04.flac:a04bcfc5f142be975fd35ad3ff5de50e
gd1979-12-04d1t05.flac:3e269a6f5a3f95713b4ba8388424e24d
gd1979-12-04d1t06.flac:dcd23c6ab49825748800e8c535695458
gd1979-12-04d1t07.flac:980e5b1f1617c2779dce92e1e3f2ac97
gd1979-12-04d1t08.flac:28cd15b887f086f89524b1515b66a316
gd1979-12-04d1t09.flac:00f5fedb942f6d6c3761f3241bc058dd
gd1979-12-04d2t01.flac:ec277c89ad43267d68c3167de5bd1cc8
gd1979-12-04d2t02.flac:ef89fc903ad326964d1a12261b8396dd
gd1979-12-04d2t03.flac:5416e1284dcaf3befc3253051fe8d3b0
gd1979-12-04d2t04.flac:0e233e4ca4edcfa6df7073ddabf73788
gd1979-12-04d2t05.flac:ee18a33ea02ebd598e5fefb88beb457e
gd1979-12-04d2t06.flac:b28880ed47ed19cb79f96aa550bec2a2
gd1979-12-04d3t01.flac:1b190e88863df25fa777038454f9cf72
gd1979-12-04d3t02.flac:db1e38f4b61b6bde2cfe5021a65356c2
gd1979-12-04d3t03.flac:1bb1a01c5159f412ad2d2c0f8562e47c
gd1979-12-04d3t04.flac:43aa567be5eb0527a44dd3bf4af2397e
gd1979-12-04d3t05.flac:88bc68232962f9592eca2be93f8f4fb5
gd1979-12-04d3t06.flac:9f19c502c9e0f00c498b1d4fb60adc9c

Comments
Add Comment
Other Sources (comments)
Master Soundboard Cassette... (2) flac16; lineage:... (1) flac16; Recording by... (0) flac16; 2 source... (0)
Date User Comment