Browse Collections Artists Sources   Search Dates

Add Show    List Management    Help


Grateful Dead 06/08/90
Cal Expo, Sacramento, CA
Comments Add Comment    Source Collectors    Add to Collection    Add to Want List    History
Source # 130389 Other Sources
Entered by Matt Vernon
Checksums flac-md5 , ffp
Disc Counts 0 / 0
Media Size Compressed: 855.16 MB (896696130 bytes)
Uncompressed: 1.59 GB (1706367516 bytes)
Date Circulated
Date Added
06/22/20
06/22/2014
Source Summary flac16; 3 Source Matrix by Dusborne Soundboard (shnid:034397) Source: FOB Matrix SBD > DAT > CDR > WAV > SHN, Audience (shnid:095184) FOB AUD: 2x Sennheiser MD421's plus 1x Nakamichi CM300 with CP1 cardioid capsule blend mic > Nakamichi 550 > Maxell XL-IIS 90's with no Dolby. Set up 30 feet from the stage, FOB center. Taped by Alabama Bob and Audience (shnid:111329) Recorded by The Weasel with 2 Neumann KMF4 microphones (up front) > Sony TC-D5M - analog master cassettes 
  Archive
Source Information - Download Text | Download Zip
Grateful Dead
June 8, 1990
Cal Expo Amphitheatre
Sacramento, CA

3 Source Matrix

Soundboard (shnid:034397)
--------------------------------------------------------------------------------
gd90-06-08.034397.sbd.miller.tetzeli.fix-6935.sbeok.t-flac16


Source:  FOB Matrix SBD > DAT > CDR > WAV > SHN.
End of Sugar Magnolia and encore:  Schoeps CMC 441's > PCM > SL2000 > DAT >
Cass > SHN (Kutick/Adelman).

Comments:
*d1t01 - level changes at the beginning
cord problems just prior to start of Queen Jane
high pitched whistle? heard before start of some songs during first set -
annoying audience member?
**d3t02 - d/o removed @ 3:58 (on master DAT)
/aud splice

The following fix was made to this source: the transition between disks 2 and 3 was
made seamless.  Shntool was used to correct resulting sector boundary errors.

Bill Tetzeli, [email protected]
2/17/2006

Thanks to C. Miller for the SBD seeds.
DAE (EAC) > tracking (cdwave) > boundary checking (shntool) > shn (mkwact)
via neo_levo.

Flac encoding notes:
All processing with Trader's Little Helper
Shn - st5 generated
Shn > Flac ( level 8 )
Flac - st5 generated and matched to Shn st5
A Mills 9/13/13

Audience (shnid:095184)
-------------------------------------------------------------------------------
gd1990-06-08.fob.alabamabob.andrewf.95184.flac16

FOB AUD: 2x Sennheiser MD421's plus 1x Nakamichi CM300 with
CP1 cardioid capsule blend mic > Nakamichi 550 > Maxell XL-IIS
90's with no Dolby. Set up 30 feet from the stage, FOB center.
Taped by Alabama Bob.

Transfer: MAC > Nakamichi DR-8 (no Dolby) > Audiophile 2496 >
Wavelab > CD-Wave > TLH > FLAC. Transfer by Andrew F.

Notes:
- Promised Land false start after Birdsong.
- Disc break is seamless.
- Patches from ShnID-9630 as follows:
- High Time (crowd noise) 7:15 > It's All Over Now 0:10.
- Uncle John's Band 0:00 > 0:26.
- Drums 1:03 > 6:09

Audience (shnid:111329)
-------------------------------------------------------------------------------
gd1990-06-08.111329.NeumannKMF4.daweez.d5scott.flac16

Recorded by The Weasel - "Da Weez"
Transferred and mastered to .wav files by D5scott
Source: 2 Neumann KMF4 microphones (up front) > Sony TC-D5M - analog master cassettes
Transfer: Sony TC-D5M (original record deck) > Pre Sonus Inspire GT > Sound Forge >
.wav files > Trader's Little Helper > flac files

R.I.P. Sandy - aka "Bigfoot"

----------------------------------------------------------------------------------

---Thank you Alabama Bob and Da Weez for recording the show.
---Thank you Charlie Miller for providing the SBD.
---Thank you Chris Ladner and Bill Tetzeli for your work on the SBD.
---Thank you Andrew F. for your AUD. transfer.(shnid:095184)
---Thank you D5scott for your AUD. transfer.(shnid:111329)
---Thank you XJ32 for the art work.
---Thank you Germain for your advice, encouragement, guidance and seeding.

Matrix by dusborne

05-30-2014
-------------------------------------------------------------------------------
Set 1

101 - gd90-06-08s1t01 - Cold Rain & Snow
102 - gd90-06-08s1t02 - Walkin' Blues
103 - gd90-06-08s1t03 - Easy To Love You
104 - gd90-06-08s1t04 - Jack-A-Roe
105 - gd90-06-08s1t05 - Queen Jane Approximately
106 - gd90-06-08s1t06 - High Time
107 - gd90-06-08s1t07 - It's All Over Now
108 - gd90-06-08s1t08 - Bird Song

Set 2

201 - gd90-06-08s2t01 - Tuning
202 - gd90-06-08s2t02 - Uncle John's Band ->
203 - gd90-06-08s2t03 - China Cat Sunflower ->
204 - gd90-06-08s2t04 - I Know You Rider ->
205 - gd90-06-08s2t05 - Estimated Prophet ->
206 - gd90-06-08s2t06 - Foolish Heart ->
207 - gd90-06-08s2t07 - Drums ->
208 - gd90-06-08s2t08 - Space ->
209 - gd90-06-08s2t09 - The Wheel ->
210 - gd90-06-08s2t10 - I Need A Miracle ->
211 - gd90-06-08s2t11 - Black Peter ->
212 - gd90-06-08s2t12 - Sugar Magnolia

Encore
213 - gd90-06-08s2t13 - U.S. Blues
-----------------------------------------------------------------------------------

Tagging notes:
Show information is embedded within the header
of each flac file. It will display on any player
capable of directly playing flac files.
If converted to wav during processing, all tags
will be stripped, however audio data will remain
unaffected. If you must transcode to a lossy format,
do so directly Flac > Lossy.
Use st5 to validate audio integrity.
Md5 values will change if tagging is altered.
Dave Usborne 05-30-2014
------------------------------------------------------------------------------------

length     expanded size    cdr  WAVE problems  fmt   ratio  filename
     6:50.42       72422828 B   ---   --   ---xx   flac  0.5580  gd90-06-08s1t01.flac
     7:13.46       76489436 B   ---   --   ---xx   flac  0.5222  gd90-06-08s1t02.flac
     5:39.36       59884316 B   ---   --   ---xx   flac  0.5523  gd90-06-08s1t03.flac
     4:57.38       52480220 B   ---   --   ---xx   flac  0.5430  gd90-06-08s1t04.flac
     8:11.54       86739452 B   ---   --   ---xx   flac  0.5091  gd90-06-08s1t05.flac
     7:49.37       82818668 B   ---   --   ---xx   flac  0.4981  gd90-06-08s1t06.flac
     8:53.13       94051820 B   ---   --   ---xx   flac  0.5329  gd90-06-08s1t07.flac
    11:59.48      126944540 B   ---   --   ---xx   flac  0.5418  gd90-06-08s1t08.flac
     1:25.23       15048140 B   ---   --   ---xx   flac  0.3600  gd90-06-08s2t01.flac
     8:57.73       94898540 B   ---   --   ---xx   flac  0.5518  gd90-06-08s2t02.flac
     6:06.12       64590668 B   ---   --   ---xx   flac  0.5606  gd90-06-08s2t03.flac
     5:16.03       55749500 B   ---   --   ---xx   flac  0.5675  gd90-06-08s2t04.flac
    10:07.10      107098364 B   ---   --   ---xx   flac  0.5385  gd90-06-08s2t05.flac
    15:33.44      164684732 B   ---   --   ---xx   flac  0.5424  gd90-06-08s2t06.flac
     6:33.19       69369932 B   ---   --   ---xx   flac  0.4277  gd90-06-08s2t07.flac
    12:16.06      129844556 B   ---   --   ---xx   flac  0.4029  gd90-06-08s2t08.flac
     5:00.51       53039996 B   ---   --   ---xx   flac  0.5546  gd90-06-08s2t09.flac
     4:01.24       42568892 B   ---   --   ---xx   flac  0.5629  gd90-06-08s2t10.flac
     9:55.39      105049772 B   ---   --   ---xx   flac  0.5185  gd90-06-08s2t11.flac
     8:45.61       92753516 B   ---   --   ---xx   flac  0.5777  gd90-06-08s2t12.flac
     5:39.17       59839628 B   ---   --   ---xx   flac  0.5748  gd90-06-08s2t13.flac
   161:13.21     1706367516 B                            0.5255  (21 files)



Show Checksums
flac-md5
089972cbabeec04a4c9df7214fab03a7 *gd90-06-08s1t01.flac
fef39b1e1f593d1ba27fcb5d2cb69f8c *gd90-06-08s1t02.flac
3e87f1f74b5fb7a20d9239b82a021a94 *gd90-06-08s1t03.flac
99650d4bac9c06b2804b7e69aab5070e *gd90-06-08s1t04.flac
d4b44d2c2a4f3a618ba4090acfb0fb52 *gd90-06-08s1t05.flac
1fe247575e37e053a25790a05b880def *gd90-06-08s1t06.flac
d3766503b17950e65d1ffad17054d5f4 *gd90-06-08s1t07.flac
82a9303366221030058a4b7297102869 *gd90-06-08s1t08.flac
2ea549174c1a990ae06315b4c542d5b4 *gd90-06-08s2t01.flac
f662020029b60c1ca2578f8b20a1f3ac *gd90-06-08s2t02.flac
1f7f9a56ad4d752d527cf0d5a2f21f1c *gd90-06-08s2t03.flac
f634894589fcb96c72ba3aa8545e5806 *gd90-06-08s2t04.flac
8181391b254ec5121c6984ea767bb086 *gd90-06-08s2t05.flac
a5de9f724e2120243f6d523230f56dfd *gd90-06-08s2t06.flac
640acfd9915e74b3f37351bdf041f60f *gd90-06-08s2t07.flac
a242d3957e1f7165c90308ad8b6d5345 *gd90-06-08s2t08.flac
0ca5bd473f4bb505e196050feced1ff3 *gd90-06-08s2t09.flac
f2758b8aa05575a8aa2350350e24708c *gd90-06-08s2t10.flac
65e06d17410f2bb7fedb1d4add2c6746 *gd90-06-08s2t11.flac
e691d278cb1f6513f4e2a6acf15a74dc *gd90-06-08s2t12.flac
bed886e3c197a8304c95646b43e4e816 *gd90-06-08s2t13.flac
ffp
gd90-06-08s1t01.flac:b87c9e430d2d52c0437429101333c3f9
gd90-06-08s1t02.flac:d31a1d54f087591c8aae6ee691773179
gd90-06-08s1t03.flac:c7e52251974c9a3da905eb428e7864db
gd90-06-08s1t04.flac:bbb89bf2214b755b4fd5028269f61c7a
gd90-06-08s1t05.flac:74a0d36ac103d1d4d06d55fde7310002
gd90-06-08s1t06.flac:ddb4a0eb5e7d8574ff25959c00c2ee97
gd90-06-08s1t07.flac:8171c4c5df96d979ae196fde647a0058
gd90-06-08s1t08.flac:2ec69a63757f3374eb69a9764ee7fd34
gd90-06-08s2t01.flac:b712f3d266c5ba2ea34aedb5a776d936
gd90-06-08s2t02.flac:a80365e8a533f617c5b314fe68286715
gd90-06-08s2t03.flac:49873cf6896de84b44f5468a5cb11305
gd90-06-08s2t04.flac:b1ae400e785e10e33398e16945a2dcf8
gd90-06-08s2t05.flac:4beaa7a15bec57364b743d5dc31468a0
gd90-06-08s2t06.flac:163e52bc5f9dd574b7684cf918a1c375
gd90-06-08s2t07.flac:d4fc574c0c542efc736cd0f28b21e5e1
gd90-06-08s2t08.flac:fe0176ba3427ad7479c3bb358e735599
gd90-06-08s2t09.flac:4490c8c6884df49a5fa1a6d55895c651
gd90-06-08s2t10.flac:54f5dc5a16b423019a4449b36bf10d76
gd90-06-08s2t11.flac:e390f2417ea6381b379a711b0deb3030
gd90-06-08s2t12.flac:a2682a2388d54d156ea45f72a6aafb62
gd90-06-08s2t13.flac:07ed515308c540d0ab27ca3b67b02e7a

Comments
Add Comment
Other Sources (comments)
FOB Matrix SBD > DAT > CDR... (0) fob "at the impact zone" 6'... (0) Source: Schoeps CMC 441's >... (0) FOB Matrix SBD > DAT > CDR... (0) flac16; Sennheiser... (0) flac16; FOB AUD: 2x... (1) flac16; Source: 2... (0) flac24; Master... (0) flac16; Master... (0)
Date User Comment