Browse Collections Artists Sources   Search Dates

Add Show    List Management    Help


Phish 07/05/14
Saratoga Performing Arts Center, Saratoga Springs, NY
Comments Add Comment    Source Collectors    Add to Collection    Add to Want List    History
Source # 130545 Other Sources
Entered by Jeff Mitchell
Checksums ffp
Disc Counts 0 / 0
Media Size
Date Circulated
Date Added
07/07/2014
07/08/2014
Source Summary flac16 44.1kHz OTS DFC 6ft; Schoeps mk4 (dina)>Nbob actives>Naint PFAs>Sonosax SX-R4 (24/96); WAV>USB>Macbook Pro>Wave Editor(tracking,fades,resample(izotope)/dither(mbit+)to 16 bit/44.1k)>XAct(FLAC 8,ffp,fix sbe) Taped By:Andy Murray 
Source Information - Download Text | Download Zip
Phish
2014-07-05
Saratoga Performing Arts Center
Saratoga Springs,NY

Source:Schoeps mk4 (dina)>Nbob actives>Naint PFAs>Sonosax SX-R4 (24/96)
Location:OTS DFC 6ft
Transfer:WAV>USB>Macbook Pro>Wave Editor(tracking,fades,resample(izotope)/dither(mbit+)to 16 bit/44.1k)>XAct(FLAC 8,ffp,fix sbe)
Taped By:Andy Murray


Set 1

01.crowd
02.Crowd Control
03.My Friend, My Friend
04.Scent Of A Mule
05.Undermind
06.A Song I Heard The Ocean Sing
07.I Didn't Know
08.Foam
09.Wombat
10.Divided Sky
11.Wading In The Velvet Sea
12.David Bowie

Set 2

01.crowd
02.Carini >
03.Waves
04.Wingsuit >
05.Piper
06.Fluffhead
07.Heavy Things
08.Slave To The Traffic Light
09.You Enjoy Myself
10.Encore break
11.Suzy Greenberg

;flac fingerprints generated by xACT 2.29 on 2014-07-07 12:50:42 +0000

ph2014-07-05_mk4_1644_d1t01.flac:aac580d3ef35f347f1880d14beb7dbc1
ph2014-07-05_mk4_1644_d1t02.flac:64e1b508dd7a7d4a07c0890aa05920ad
ph2014-07-05_mk4_1644_d1t03.flac:474d8b8d87190414e874937bdecf8bf3
ph2014-07-05_mk4_1644_d1t04.flac:56c9ae782e5da70d951c85a518da5e49
ph2014-07-05_mk4_1644_d1t05.flac:9294acd0a89ac2a027d5349f6c29a190
ph2014-07-05_mk4_1644_d1t06.flac:4e0d08f515245b3de918deec713cf610
ph2014-07-05_mk4_1644_d1t07.flac:135c05721dc1319da7e936cb5de2f649
ph2014-07-05_mk4_1644_d1t08.flac:8e6a011caa533951b95d21fa109f0b29
ph2014-07-05_mk4_1644_d1t09.flac:77a73782ca54a46d024bf929262b3353
ph2014-07-05_mk4_1644_d1t10.flac:d16ea15b2e2eef502bf0a53c2a79639c
ph2014-07-05_mk4_1644_d1t11.flac:e6f02c4a09ed42354b6d4899f22d1dd3
ph2014-07-05_mk4_1644_d1t12.flac:af0b08436ab54f6896961127df1fb4b3
ph2014-07-05_mk4_1644_d2t01.flac:bf0397c45daf0c5b3f895b264f298677
ph2014-07-05_mk4_1644_d2t02.flac:8ce2f6fea70875550b563331b7c56b3d
ph2014-07-05_mk4_1644_d2t03.flac:6282ae3d2fa403128b170b7716dfae48
ph2014-07-05_mk4_1644_d2t04.flac:3de8bd9e0797c082a70e816fa291d7c4
ph2014-07-05_mk4_1644_d2t05.flac:984ed3c2e0b26dd248a220505033ac23
ph2014-07-05_mk4_1644_d2t06.flac:4f245ee9ec4723aad794c49dcd310053
ph2014-07-05_mk4_1644_d2t07.flac:c11b1bf01252e8648791afbb9b36b418
ph2014-07-05_mk4_1644_d2t08.flac:71c01ce2bbeb1d8270527cdcef5d8b3f
ph2014-07-05_mk4_1644_d2t09.flac:3f4280abc3b63c8b2695e4f3a53ea886
ph2014-07-05_mk4_1644_d2t10.flac:3746f73e8a0f5961566599a75248d485
ph2014-07-05_mk4_1644_d2t11.flac:fe49977ffa52cd59f77c10bb03af1242

length expanded size cdr WAVE problems fmt ratio filename
1:32.52 16351148 B --- -- ----- wav 1.0000 ph2014-07-05_mk4_1644_d1t01.wav
4:13.33 44706860 B --- -- ----- wav 1.0000 ph2014-07-05_mk4_1644_d1t02.wav
5:50.06 61754156 B --- -- ----- wav 1.0000 ph2014-07-05_mk4_1644_d1t03.wav
10:00.40 105934124 B --- -- ----- wav 1.0000 ph2014-07-05_mk4_1644_d1t04.wav
7:19.51 77559596 B --- -- ----- wav 1.0000 ph2014-07-05_mk4_1644_d1t05.wav
6:12.63 65769020 B --- -- ----- wav 1.0000 ph2014-07-05_mk4_1644_d1t06.wav
4:18.32 45586508 B --- -- ----- wav 1.0000 ph2014-07-05_mk4_1644_d1t07.wav
7:55.69 83952332 B --- -- ----- wav 1.0000 ph2014-07-05_mk4_1644_d1t08.wav
5:33.53 58865900 B --- -- ----- wav 1.0000 ph2014-07-05_mk4_1644_d1t09.wav
14:40.72 155401388 B --- -- ----- wav 1.0000 ph2014-07-05_mk4_1644_d1t10.wav
6:19.62 67001468 B --- -- ----- wav 1.0000 ph2014-07-05_mk4_1644_d1t11.wav
11:33.38 122334620 B --- -- ----- wav 1.0000 ph2014-07-05_mk4_1644_d1t12.wav
0:42.19 7453532 B --- -- ----- wav 1.0000 ph2014-07-05_mk4_1644_d2t01.wav
10:54.46 115473836 B --- -- ----- wav 1.0000 ph2014-07-05_mk4_1644_d2t02.wav
10:45.63 113926220 B --- -- ----- wav 1.0000 ph2014-07-05_mk4_1644_d2t03.wav
8:00.32 84747308 B --- -- ----- wav 1.0000 ph2014-07-05_mk4_1644_d2t04.wav
13:22.52 141595148 B --- -- ----- wav 1.0000 ph2014-07-05_mk4_1644_d2t05.wav
14:24.41 152506076 B --- -- ----- wav 1.0000 ph2014-07-05_mk4_1644_d2t06.wav
5:17.13 55949420 B --- -- ----- wav 1.0000 ph2014-07-05_mk4_1644_d2t07.wav
10:07.47 107185388 B --- -- ----- wav 1.0000 ph2014-07-05_mk4_1644_d2t08.wav
21:59.61 232815116 B --- -- ----- wav 1.0000 ph2014-07-05_mk4_1644_d2t09.wav
1:47.51 18994796 B --- -- ----- wav 1.0000 ph2014-07-05_mk4_1644_d2t10.wav
6:45.33 71519660 B --- -- ----- wav 1.0000 ph2014-07-05_mk4_1644_d2t11.wav
189:39.54 2007383620 B 1.0000 (23 files)
Show Checksums
ffp
ph2014-07-05_mk4_1644_d1t01.flac:aac580d3ef35f347f1880d14beb7dbc1
ph2014-07-05_mk4_1644_d1t02.flac:64e1b508dd7a7d4a07c0890aa05920ad
ph2014-07-05_mk4_1644_d1t03.flac:474d8b8d87190414e874937bdecf8bf3
ph2014-07-05_mk4_1644_d1t04.flac:56c9ae782e5da70d951c85a518da5e49
ph2014-07-05_mk4_1644_d1t05.flac:9294acd0a89ac2a027d5349f6c29a190
ph2014-07-05_mk4_1644_d1t06.flac:4e0d08f515245b3de918deec713cf610
ph2014-07-05_mk4_1644_d1t07.flac:135c05721dc1319da7e936cb5de2f649
ph2014-07-05_mk4_1644_d1t08.flac:8e6a011caa533951b95d21fa109f0b29
ph2014-07-05_mk4_1644_d1t09.flac:77a73782ca54a46d024bf929262b3353
ph2014-07-05_mk4_1644_d1t10.flac:d16ea15b2e2eef502bf0a53c2a79639c
ph2014-07-05_mk4_1644_d1t11.flac:e6f02c4a09ed42354b6d4899f22d1dd3
ph2014-07-05_mk4_1644_d1t12.flac:af0b08436ab54f6896961127df1fb4b3
ph2014-07-05_mk4_1644_d2t01.flac:bf0397c45daf0c5b3f895b264f298677
ph2014-07-05_mk4_1644_d2t02.flac:8ce2f6fea70875550b563331b7c56b3d
ph2014-07-05_mk4_1644_d2t03.flac:6282ae3d2fa403128b170b7716dfae48
ph2014-07-05_mk4_1644_d2t04.flac:3de8bd9e0797c082a70e816fa291d7c4
ph2014-07-05_mk4_1644_d2t05.flac:984ed3c2e0b26dd248a220505033ac23
ph2014-07-05_mk4_1644_d2t06.flac:4f245ee9ec4723aad794c49dcd310053
ph2014-07-05_mk4_1644_d2t07.flac:c11b1bf01252e8648791afbb9b36b418
ph2014-07-05_mk4_1644_d2t08.flac:71c01ce2bbeb1d8270527cdcef5d8b3f
ph2014-07-05_mk4_1644_d2t09.flac:3f4280abc3b63c8b2695e4f3a53ea886
ph2014-07-05_mk4_1644_d2t10.flac:3746f73e8a0f5961566599a75248d485
ph2014-07-05_mk4_1644_d2t11.flac:fe49977ffa52cd59f77c10bb03af1242

Comments
Add Comment
Other Sources (comments)
flac16 44.1kHz OTS... (0) flac16 44.1kHz DFC,... (0) flac16 44.1kHz OTS... (0) flac16 44.1kHz OTS... (0) flac16 44.1kHz OTS... (0) flac24 96kHz OTS DFC... (0) flac16 44.1kHz OTS... (0) flac24 96kHz OTS DFC... (0) flac16 44.1kHz... (0) flac24 96kHz DFC, 6'... (0) flac24 96kHz Neumann... (0) flac16 44.1kHz... (0)
Date User Comment